[ Сегодня идет свободное скачивание без начисления Download ]


Статистика раздачи
Скачал: [ 1 ]
 
   
 
 
 
 
Касл / Castle Год выпуска: 2009-2016
Страна: США
Жанр: драма, комедия, криминал, детектив
Продолжительность: ~ 00:44:00 одна серия
Перевод: Профессиональный многоголосый - Fox Life-Режиссер: Роб Боумен, Джон Терлески, Билл Роу-В ролях: Натан Филлион, Стана Катич, Сьюзэн Салливан, Молли С. Куинн, Джон Уэртас, Тамала Джонс, Шеймус Девер, Пенни Джонсон, Рубен Сантьяго-Хадсон, Ари Гросс, Скотт Полин, Виктор Уэбстер, Джулиана Девер, Майкл Трукко, Майкл Дорн, Монит Мазур, Джеффри Пирсон, Джош Гомез, Майкл Коннелли, Кенни Бауманн, Джудит Скотт, Бэйли Чейз, Дэна Дилэйни, Макс Мартини, Адриан Пасдар, Дженнифер Билз, Джеймс Паттерсон, Диана-Мария Рива, Леонард Робертс, Бахар Сумех, Джош Стэмберг, Дэн Кастелланета, Джейсон Бех, Брайан Гудман, Локлин Манро, Дэвид Чисам и др.-Описание: Знакомьтесь, Ричард Касл - успешный писатель детективного жанра, который в последней книге убил своего главного героя. Но кажется, что одному из почитателей его таланта книги понравились слегка чересчур - в городе появляется подражатель, совершающий преступления, с убийственной точностью копируя способы, которыми Касл убивал в своих произведениях. И вот наш изнывающий от скуки писатель был вызван в отдел убийств Нью-йоркской полиции, чтобы помочь найти убийцу.- -Качество: WEB-DLRip
Формат: AVI
Видео: XviD, ~ 1400 Кбит/с, 640x352, 720x400, 720x416
Аудио Русский, английский: (MP3, 2 ch, 128 кбит/с), (AC3, 2 ch, 192 Кбит/с)
Субтитры: нет

Media Info

Общее
Формат                                   : AVI
Формат/Информация                        : Audio Video Interleave
Размер файла                             : 420 Мбайт
Продолжительность                        : 43 м.
Режим общего битрейта                    : Переменный
Общий поток                              : 1360 Кбит/сек
Программа кодирования                    : Nandub v1.0rc2
Библиотека кодирования                   : Nandub build 1853/release
Видео
Идентификатор                            : 0
Формат                                   : MPEG-4 Visual
Профиль формата                          : Advanced [email protected]
Параметр BVOP формата                    : Нет
Параметр QPel формата                    : Нет
Параметр GMC формата                     : Без точки перехода
Параметр матрицы формата                 : Default (H.263)
Идентификатор кодека                     : XVID
Идентификатор кодека/Подсказка           : XviD
Продолжительность                        : 43 м.
Битрейт                                  : 1158 Кбит/сек
Ширина                                   : 720 пикселей
Высота                                   : 400 пикселей
Соотношение сторон                       : 16:9
Частота кадров                           : 23,976 (23976/1000) кадра/сек
Цветовое пространство                    : YUV
Субдискретизация насыщенности            : 4:2:0
Битовая глубина                          : 8 бит
Тип развёртки                            : Прогрессивная
Метод сжатия                             : С потерями
Бит/(Пиксели*Кадры)                      : 0.168
Размер потока                            : 357 Мбайт (85%)
Библиотека кодирования                   : XviD 1.2.1 (UTC 2008-12-04)
Аудио
Идентификатор                            : 1
Формат                                   : MPEG Audio
Версия формата                           : Version 1
Профиль формата                          : Layer 3
Режим                                    : Joint stereo
Расширение режима                        : MS Stereo
Идентификатор кодека                     : 55
Идентификатор кодека/Подсказка           : MP3
Продолжительность                        : 43 м.
Вид битрейта                             : Переменный
Битрейт                                  : 192 Кбит/сек
Каналы                                   : 2 канала
Частота                                  : 48,0 КГц
Метод сжатия                             : С потерями
Размер потока                            : 58,5 Мбайт (14%)
Выравнивание                             : Соединение по промежуткам
Продолжительность промежутка             : 24  мс. (0,58 видеокадр)
Время предзагрузки промежутка            : 486  мс.
Библиотека кодирования                   : LAME3.97b
Настройки программы                      : -m j -V 4 -q 3 -lowpass 18.6 --abr 192

Скриншоты



[Цитировать]



Показать сообщения:    

Текущее время: 22-Окт 19:23

Часовой пояс: UTC + 6


Вы не можете начинать темы
Вы не можете отвечать на сообщения
Вы не можете редактировать свои сообщения
Вы не можете удалять свои сообщения
Вы не можете голосовать в опросах
Вы не можете прикреплять файлы к сообщениям
Вы не можете скачивать файлы

!ВНИМАНИЕ!
Сайт не предоставляет электронные версии произведений, а занимается лишь коллекционированием и каталогизацией ссылок, присылаемых и публикуемых на форуме нашими читателями. Если вы являетесь правообладателем какого-либо представленного материала и не желаете, чтобы ссылка на него находилась в нашем каталоге, свяжитесь с нами, и мы незамедлительно удалим ее. Файлы для обмена на трекере предоставлены пользователями сайта, и администрация не несет ответственности за их содержание. Просьба не заливать файлы, защищенные авторскими правами, а также файлы нелегального содержания!