[ Сегодня идет свободное скачивание без начисления Download ]


Статистика раздачи
Качаю: [ 2 ]
Скачал: [ 1 ]
 
   
 
 
 
 
Форс-мажоры (Костюмы в Законе) / Suits Название: Форс-мажоры (Костюмы, Костюмы в Законе)
Оригинальное название: Suits
Год выпуска: 2011-2017
Жанр: Драма, криминал, юриспруденция, комедия
Выпущено: США, Dutch Oven
Продолжительность: 92 х ~ 00:48:00
Перевод: Профессиональный многоголосый, профессиональный двухголосый (Первый канал, Бяко Рекордс, NewStudio)
Режиссер: Кевин Брэй, Джон Скотт
В ролях: Гэбриел Махт, Патрик Дж. Адамс, Рик Хоффман, Меган Маркл, Сара Рафферти, Джина Торрес, Макс Топплин, Дэвид Костабайл, Ванесса Рэй, Том Липински, Ребекка Шалл, Гэри Коул, Аманда Шулл, Мишель Фэйрли, Конлет Хилл, Эрик Клоуз, Эбигейл Спенсер, Макс Бисли, Рэйчел Харрис, Адам Годли, Титус Уэлливер, Надя Дажани
О фильме: Случайная встреча блестящего адвоката Харви Спектра и парня – недоучки с гениальной памятью и математическим талантом Майка Росса приводит к неожиданным последствиям: впечатлившись способностями молодого человека, юрист нанимает его в качестве помощника. Так был создан необыкновенно продуктивно выполняющий свою работу адвокатский тандем, скрепленный дружбой и преданностью его участников. Однако наступает момент, когда тщательно хранимый секрет восходящего светила юридических кругов Майка Росса становится опасным для обоих друзей…

Качество: WEB-DLRip
Видео: XviD, ~ 1700 Кбит/с, 720x400
Аудио: Русский, английский (МР3, 2 ch, 128 Кбит/с), (AC3, 2 ch, 192 Кбит/с)

Релиз

NovaFilm, NewStudio
Озвучивание 1-го сезона: профессиональное многоголосое - Первый канал
Озвучивание 2-5 сезонов: профессиональное двухголосое - Бяко Рекордс
Озвучивание 6 сезона: профессиональное двухголосое - NewStudio

MediaInfo

Общее
Полное имя                               : F:\кино\Suits (Season 06) NewStudio\Suits.s06e02.WEBDLRip.NewStudio.avi
Формат                                   : AVI
Формат/Информация                        : Audio Video Interleave
Размер файла                             : 550 Мбайт
Продолжительность                        : 42 м.
Общий поток                              : 1803 Кбит/сек
Программа кодирования                    : VirtualDubMod 1.5.10.3 | www.virtualdub-fr.org || (build 2550/release)
Библиотека кодирования                   : VirtualDubMod build 2550/release[br]Видео
Идентификатор                            : 0
Формат                                   : MPEG-4 Visual
Профиль формата                          : Advanced [email protected]
Параметр BVOP формата                    : 1
Параметр QPel формата                    : Нет
Параметр GMC формата                     : Без точки перехода
Параметр матрицы формата                 : Default (MPEG)
Идентификатор кодека                     : XVID
Идентификатор кодека/Подсказка           : XviD
Продолжительность                        : 42 м.
Битрейт                                  : 1533 Кбит/сек
Ширина                                   : 720 пикселей
Высота                                   : 400 пикселей
Соотношение сторон                       : 16:9
Частота кадров                           : 23,976 кадра/сек
Цветовое пространство                    : YUV
Субдискретизация насыщенности            : 4:2:0
Битовая глубина                          : 8 бит
Тип развёртки                            : Прогрессивная
Метод сжатия                             : С потерями
Бит/(Пиксели*Кадры)                      : 0.222
Размер потока                            : 468 Мбайт (85%)
Библиотека кодирования                   : XviD 73[br]Аудио #1
Идентификатор                            : 1
Формат                                   : MPEG Audio
Версия формата                           : Version 1
Профиль формата                          : Layer 3
Режим                                    : Joint stereo
Расширение режима                        : MS Stereo
Идентификатор кодека                     : 55
Идентификатор кодека/Подсказка           : MP3
Продолжительность                        : 42 м.
Вид битрейта                             : Постоянный
Битрейт                                  : 128 Кбит/сек
Каналы                                   : 2 канала
Частота                                  : 48,0 КГц
Метод сжатия                             : С потерями
Размер потока                            : 39,1 Мбайт (7%)
Выравнивание                             : Соединение по промежуткам
Продолжительность промежутка             : 42  мс. (1,00 видеокадр)
Время предзагрузки промежутка            : 504  мс.[br]Аудио #2
Идентификатор                            : 2
Формат                                   : MPEG Audio
Версия формата                           : Version 1
Профиль формата                          : Layer 3
Режим                                    : Joint stereo
Расширение режима                        : MS Stereo
Идентификатор кодека                     : 55
Идентификатор кодека/Подсказка           : MP3
Продолжительность                        : 42 м.
Вид битрейта                             : Постоянный
Битрейт                                  : 128 Кбит/сек
Каналы                                   : 2 канала
Частота                                  : 48,0 КГц
Метод сжатия                             : С потерями
Размер потока                            : 39,1 Мбайт (7%)
Выравнивание                             : Соединение по промежуткам
Продолжительность промежутка             : 42  мс. (1,00 видеокадр)
Время предзагрузки промежутка            : 504  мс.

Скриншоты

Раздача ведется путем добавления новых серий

Когда раздача ведётся путём добавления новых серий, при каждом добавлении создётся новый торрент. Чтобы начать докачку новой серии, пользователям необходимо сделать следующее:
(1) остановить скачивание,
(2) удалить старый торрент у себя из клиента (старые серии удалять не надо),
(3) скачать новый торрент и запустить его у себя в клиенте вместо старого, при этом указать клиенту путь в старую папку, куда и должно происходить скачивание новых серий.
Ваш клиент при этом должен произвести хеширование (проверку) старой папки (если не производит сам - помогите ему сделать это), и будет докачивать только те серии, которых у вас ещё нет. Старые серии при этом не удаляются, а продолжают раздаваться!
Eсли вы уже удалили старые серии, то предотвратить повторную закачку старых серий можно, отжав галочку в соответсвующих местах при запуске нового торрента. По возможности, желательно не удалять старые серии как можно дольше, чтобы релизёр не столько продолжал раздавать старые серии, а смог сконцентрироваться на новых.
Добавлена 16 (92) серия. Сезон закончен.
Прилепил D-r Woland_kz

[Цитировать]

Добавлена 16 (92) серия. Сезон закончен.

[Цитировать]



Показать сообщения:    

Текущее время: 22-Окт 19:22

Часовой пояс: UTC + 6


Вы не можете начинать темы
Вы не можете отвечать на сообщения
Вы не можете редактировать свои сообщения
Вы не можете удалять свои сообщения
Вы не можете голосовать в опросах
Вы не можете прикреплять файлы к сообщениям
Вы не можете скачивать файлы

!ВНИМАНИЕ!
Сайт не предоставляет электронные версии произведений, а занимается лишь коллекционированием и каталогизацией ссылок, присылаемых и публикуемых на форуме нашими читателями. Если вы являетесь правообладателем какого-либо представленного материала и не желаете, чтобы ссылка на него находилась в нашем каталоге, свяжитесь с нами, и мы незамедлительно удалим ее. Файлы для обмена на трекере предоставлены пользователями сайта, и администрация не несет ответственности за их содержание. Просьба не заливать файлы, защищенные авторскими правами, а также файлы нелегального содержания!