[ Сегодня идет свободное скачивание без начисления Download ]


Статистика раздачи
Качаю: [ 2 ]
Скачал: [ 7 ]
 
   
 
 
 
 
Папаньки [01-12 из 16] (2018) WEB-DLRip Оригинальное название: Папаньки
Год выхода: 2018
Жанр: Комедия
Выпущено: Украина, Дизель Студия
Режиссер: Ирина Васильева (II), Александр Кананович
В ролях: Егор Крутоголов, Евгений Гашенко, Евгений Сморигин, Андрей Фединчик, Лилия Ребрик, Демьян Шиян, Ольга Арутюнян, Вероника Лукьяненко, Ольга Лукьяненко, Надежда Кондратовская, Анна Варпаховская, Олег Стальчук, Вячеслав Хостикоев, Александр Ярема, Олег Иваница, Лариса Трояновская, Татьяна Зиновенко, Анатолий Зиновенко, Александр Бережок, Александр Бегма, Мария Мархай
О фильме: Четверо друзей живут в одном дворе столичной многоэтажки. Кроме чисто мужских интересов, их объединяет важная тема – воспитание детей. Один из героев только готовится стать отцом, другой воспитывает 7-летнего сына, а третий – сына и двух дочек разного возраста. Герои безумно любят своих детей, гордятся их успехами и активно вовлечены в их воспитание. Только иногда отцы забывают, что сами уже выросли. И есть у них ещё четвёртый друг – заядлый холостяк и ловелас, который категорически не хочет заводить детей.
Файл:
Качество: WEBRip
Видео: XviD, ~ 1700 Кбит/с, 720x400
Аудио: AC3, 2 ch, 192 Кбит/с
Продолжительность: 12 x ~ 00:42:00
Язык: Русский
Доп. ин.-ция

Внимание! Раздача ведётся путём добавления новых серий

Раздача ведётся путём добавления новых серий, при каждом добавлении создаётся новый торрент. Чтобы начать докачку новой серии, пользователям необходимо сделать следующее:
- Остановить скачивание.
- Удалить старый торрент у себя из клиента (старые серии удалять не надо).
- Скачать новый торрент и запустить его у себя в клиенте вместо старого, при этом указать клиенту путь в старую папку куда и должно происходить скачивание новых серий.
Ваш клиент при этом должен произвести хеширование (проверку) старой папки (если не производит сам - помогите ему сделать это), и будет докачивать только те серии которых у вас ещё нет. Старые серии при этом не удаляются, а продолжают раздаваться!

MediaInfo:

Общее
Полное имя : D:\моё видио\Папаньки.2018.WEB-DLRip.Files-x\01.Папаньки.2018.WEB-DLRip.Files-x.avi
Формат : AVI
Формат/Информация : Audio Video Interleave
Размер файла : 512 Мбайт
Продолжительность : 42 м.
Общий поток : 1702 Кбит/сек
Программа кодирования : VirtualDubMod 1.5.10.3 | www.virtualdub-fr.org || (build 2550/release)
Библиотека кодирования : VirtualDubMod build 2550/release
Видео
Идентификатор : 0
Формат : MPEG-4 Visual
Профиль формата : Advanced [email protected]
Параметр BVOP формата : 1
Параметр QPel формата : Нет
Параметр GMC формата : Без точки перехода
Параметр матрицы формата : Выборочная
Идентификатор кодека : XVID
Идентификатор кодека/Подсказка : XviD
Продолжительность : 42 м.
Битрейт : 1500 Кбит/сек
Ширина : 720 пикселей
Высота : 400 пикселей
Соотношение сторон : 16:9
Частота кадров : 25,000 кадров/сек
Цветовое пространство : YUV
Субдискретизация насыщенности : 4:2:0
Битовая глубина : 8 бит
Тип развёртки : Прогрессивная
Метод сжатия : С потерями
Бит/(Пиксели*Кадры) : 0.208
Размер потока : 451 Мбайт (88%)
Библиотека кодирования : XviD 73
Аудио
Идентификатор : 1
Формат : AC-3
Формат/Информация : Audio Coding 3
Расширение режима : CM (complete main)
Параметр Endianness формата : Big
Идентификатор кодека : 2000
Продолжительность : 42 м.
Вид битрейта : Постоянный
Битрейт : 192 Кбит/сек
Каналы : 2 канала
Расположение каналов : Front: L R
Частота : 48,0 КГц
Битовая глубина : 16 бит
Метод сжатия : С потерями
Размер потока : 57,7 Мбайт (11%)
Выравнивание : Разделение по промежуткам
Продолжительность промежутка : 40 мс. (1,00 видеокадр)
Время предзагрузки промежутка : 500 мс.

Скриншоты

Добавлены 1-12 серии.


Последний раз редактировалось: papa1951deda (2018-10-12 21:21), всего редактировалось 12 раз(а)

[Цитировать]

Добавлены 11-12 серии.

[Цитировать]



Показать сообщения:    

Текущее время: 19-Окт 07:48

Часовой пояс: UTC + 6


Вы не можете начинать темы
Вы не можете отвечать на сообщения
Вы не можете редактировать свои сообщения
Вы не можете удалять свои сообщения
Вы не можете голосовать в опросах
Вы не можете прикреплять файлы к сообщениям
Вы не можете скачивать файлы

!ВНИМАНИЕ!
Сайт не предоставляет электронные версии произведений, а занимается лишь коллекционированием и каталогизацией ссылок, присылаемых и публикуемых на форуме нашими читателями. Если вы являетесь правообладателем какого-либо представленного материала и не желаете, чтобы ссылка на него находилась в нашем каталоге, свяжитесь с нами, и мы незамедлительно удалим ее. Файлы для обмена на трекере предоставлены пользователями сайта, и администрация не несет ответственности за их содержание. Просьба не заливать файлы, защищенные авторскими правами, а также файлы нелегального содержания!