[ Сегодня идет свободное скачивание без начисления Download ]


Статистика раздачи
Качаю: [ 1 ]
Скачал: [ 10 ]
 
   
 
 
 
 
Скрытое
Hidden / Craith

«Between good cop and bad cop, there are...»
- Информация
Год: 2018
Производство: Великобритания / BBC Wales, Severn Screen, Sianel 4 Cymru (S4C)
Жанр: драма, криминал, детектив
Режиссер: Гарет Брин, Эрик Стайлз, Крис Форстер
Актеры: Ниа Робертс, Джиллиан Элиза, Родри Мейлир, Йен Сейнор, Гвинет Киворт, Виктория Паг, Сара Темпест, Иоан Хефин, Шан Риз-Уильямс, Родри Сион и др.
Описание:
Кади Джон отправляется на север Уэльса, чтобы навестить отца и помочь ему перенести сложный период в жизни. Тот болен, поэтому помощь дочери ему крайне необходима. Кади приходится оставить работу инспектора на время отъёзда, однако очередное дело само её находит. Неподалёку от городка, в котором проживает отец Кади, было совершено убийство. Близ местной реки обнаруживают тело неизвестной молодой девушки. Кади решает разобраться.


Продолжительность: ~00:57:00 серия
Перевод: Многоголосый закадровый, профессиональный - NewStudio
Файл
Качество видео: HDTVRip Сэмпл
Видео: XviD, 720x400 (16:9), ~1496 kbps
Аудио 1: MP3, 2 ch, 128 kbps — Русский, многоголосый закадровый
Аудио 2: MP3, 2 ch, 128 kbps — Английский
Субтитры: Русские (форсированные, только 6 серия)
Присутствует ненормативная лексика.

MediaInfo

Общее
Полное имя : D:\Скрытое (сезон 1) Hidden (2018) HDTVRip - NewStudio\Hidden.S01E01.HDTVRip.Rus.Eng.DV.NewStudio.avi
Формат : AVI
Формат/Информация : Audio Video Interleave
Размер файла : 724 Мбайт
Продолжительность : 57 м. 16 с.
Общий поток : 1767 Кбит/сек
Название фильма : Hidden.S01E01.HDTVRip.Rus.Eng.DV.NewStudio / NNM-Club
Программа кодирования : VirtualDubModRus 1.5.10.2 (build 2542/release)
Библиотека кодирования : VirtualDubMod build 2542/release
Видео
Идентификатор : 0
Формат : MPEG-4 Visual
Профиль формата : Advanced [email protected]
Настройки формата : BVOP2
Параметр BVOP формата : 2
Параметр QPel формата : Нет
Параметр GMC формата : Без точки перехода
Параметр матрицы формата : Default (H.263)
Идентификатор кодека : XVID
Идентификатор кодека/Подсказка : XviD
Продолжительность : 57 м. 16 с.
Битрейт : 1496 Кбит/сек
Ширина : 720 пикселей
Высота : 400 пикселей
Соотношение сторон : 16:9
Частота кадров : 25,000 кадров/сек
Цветовое пространство : YUV
Субдискретизация насыщенности : 4:2:0
Битовая глубина : 8 бит
Тип развёртки : Прогрессивная
Метод сжатия : С потерями
Бит/(Пиксели*Кадры) : 0.208
Размер потока : 613 Мбайт (85%)
Заголовок : Rip by DriverV / NNM-Club
Библиотека кодирования : XviD 67
Аудио #1
Идентификатор : 1
Формат : MPEG Audio
Версия формата : Version 1
Профиль формата : Layer 3
Настройки формата : Joint stereo / MS Stereo
Идентификатор кодека : 55
Идентификатор кодека/Подсказка : MP3
Продолжительность : 57 м. 16 с.
Вид битрейта : Постоянный
Битрейт : 128 Кбит/сек
Каналы : 2 канала
Частота : 48,0 КГц
Метод сжатия : С потерями
Размер потока : 52,4 Мбайт (7%)
Выравнивание : Соединение по промежуткам
Продолжительность промежутка : 40 мс. (1,00 видеокадр)
Время предзагрузки промежутка : 504 мс.
Аудио #2
Идентификатор : 2
Формат : MPEG Audio
Версия формата : Version 1
Профиль формата : Layer 3
Настройки формата : Joint stereo / MS Stereo
Идентификатор кодека : 55
Идентификатор кодека/Подсказка : MP3
Продолжительность : 57 м. 16 с.
Вид битрейта : Постоянный
Битрейт : 128 Кбит/сек
Каналы : 2 канала
Частота : 48,0 КГц
Метод сжатия : С потерями
Размер потока : 52,4 Мбайт (7%)
Выравнивание : Соединение по промежуткам
Продолжительность промежутка : 40 мс. (1,00 видеокадр)
Время предзагрузки промежутка : 504 мс.

Подготовка релиза

Автор перевода: Юлия Мейер
Рип: DriverV

Скриншоты

Скриншоты:

[Цитировать]



Показать сообщения:    

Текущее время: 22-Окт 02:11

Часовой пояс: UTC + 6


Вы не можете начинать темы
Вы не можете отвечать на сообщения
Вы не можете редактировать свои сообщения
Вы не можете удалять свои сообщения
Вы не можете голосовать в опросах
Вы не можете прикреплять файлы к сообщениям
Вы не можете скачивать файлы

!ВНИМАНИЕ!
Сайт не предоставляет электронные версии произведений, а занимается лишь коллекционированием и каталогизацией ссылок, присылаемых и публикуемых на форуме нашими читателями. Если вы являетесь правообладателем какого-либо представленного материала и не желаете, чтобы ссылка на него находилась в нашем каталоге, свяжитесь с нами, и мы незамедлительно удалим ее. Файлы для обмена на трекере предоставлены пользователями сайта, и администрация не несет ответственности за их содержание. Просьба не заливать файлы, защищенные авторскими правами, а также файлы нелегального содержания!