[ Сегодня идет свободное скачивание без начисления Download ]


Статистика раздачи
Нет
 
   
 
 
 
 
Ривердэйл / Riverdale- -Год выпуска: 2017
Страна: США
Жанр: драма, криминал, детектив--Серии (нумерация): 1-22
Всего серий: 22
Сезон (нумерация): 2--Продолжительность: 1х 00:42:00
Перевод: Профессиональный многоголосый закадровый
Доп. инфо о переводе: LostFilm
Оригинальная аудиодорожка: нет--Русские субтитры: нет--Режиссёр: Ли Толанд Кригер , Эллисон Андерс , Роб Шейденглан--В ролях: Кей Джей Апа , Лили Рейнхарт , Камила Мендес , Коул Спроус , Марисоль Николс , Люк Перри , Кейси Котт , Мэделин Петш , Медкен Эмик , Эшли Мюррэй--Описание: Сериал расскажет о жизни и приключениях жизнерадостного и никогда не унывающего подростка Арчи Эндрюса, а также Бэтти Купер, Вероники Лодж и их друзей из Ривердэйла. Действие разворачивается в современном мире, а главные герои решают исследовать сокрытую от посторонних сторону жизни маленького мирного городка со всеми его странностями и тёмными тайнами, прячущимися за праздничным фасадом.--Спасибо за предоставленный материал BADDGET®--Качество видео: WEBRip
Формат: AVI
Видео: Xvid 720x400 23.976fps 1092kbps
Аудио: MP3 48000Hz stereo 188kbps 2ch

MediaInfo

General
Complete name : D:\Сериалы\Riverdale_S02 (LostFilm)\riverdale_s02e02.avi
Format : AVI
Format/Info : Audio Video Interleave
File size : 397 MiB
Duration : 42 min 51 s
Overall bit rate mode : Variable
Overall bit rate : 1 294 kb/s
Writing application : Nandub v1.0rc2
Writing library : Nandub build 1853/release
Video
ID : 0
Format : MPEG-4 Visual
Format profile : Advanced [email protected]
Format settings, BVOP : No
Format settings, QPel : No
Format settings, GMC : No warppoints
Format settings, Matrix : Default (MPEG)
Codec ID : XVID
Codec ID/Hint : XviD
Duration : 42 min 51 s
Bit rate : 1 092 kb/s
Width : 720 pixels
Height : 400 pixels
Display aspect ratio : 16:9
Frame rate : 23.976 (24000/1001) FPS
Original frame rate : 23.976 (23976/1000) FPS
Color space : YUV
Chroma subsampling : 4:2:0
Bit depth : 8 bits
Scan type : Progressive
Compression mode : Lossy
Bits/(Pixel*Frame) : 0.158
Stream size : 335 MiB (84%)
Writing library : XviD 1.2.1 (UTC 2008-12-04)
Audio
ID : 1
Format : MPEG Audio
Format version : Version 1
Format profile : Layer 3
Format settings : Joint stereo
Codec ID : 55
Codec ID/Hint : MP3
Duration : 42 min 51 s
Bit rate mode : Variable
Bit rate : 192 kb/s
Channel(s) : 2 channels
Sampling rate : 48.0 kHz
Frame rate : 41.667 FPS (1152 SPF)
Compression mode : Lossy
Stream size : 57.8 MiB (15%)
Alignment : Aligned on interleaves
Interleave, duration : 24 ms (0.58 video frame)
Interleave, preload duration : 482 ms
Writing library : LAME3.97b
Encoding settings : -m j -V 4 -q 3 -lowpass 18.6 --abr 192
-

[Цитировать]

Топик был перенесен из форума Новинки кинопроката 2017 (HD Video) в форум Зарубежные сериалы
D-r Woland_kz

dybrik13, Оформляйте релизы сериалов согласно Правилам и Шаблонам оформления для раздела «Сериалы (Российские и Зарубежные)»
Пример правильно оформленного заголовка:
Бесстыжие / Shameless [S07х01-07 из 12] (2016) HDTVRip | P | AlexFilm

[Цитировать]



Показать сообщения:    

Текущее время: 22-Окт 19:25

Часовой пояс: UTC + 6


Вы не можете начинать темы
Вы не можете отвечать на сообщения
Вы не можете редактировать свои сообщения
Вы не можете удалять свои сообщения
Вы не можете голосовать в опросах
Вы не можете прикреплять файлы к сообщениям
Вы не можете скачивать файлы

!ВНИМАНИЕ!
Сайт не предоставляет электронные версии произведений, а занимается лишь коллекционированием и каталогизацией ссылок, присылаемых и публикуемых на форуме нашими читателями. Если вы являетесь правообладателем какого-либо представленного материала и не желаете, чтобы ссылка на него находилась в нашем каталоге, свяжитесь с нами, и мы незамедлительно удалим ее. Файлы для обмена на трекере предоставлены пользователями сайта, и администрация не несет ответственности за их содержание. Просьба не заливать файлы, защищенные авторскими правами, а также файлы нелегального содержания!