[ Сегодня идет свободное скачивание без начисления Download ]


Статистика раздачи
Качаю: [ 1 ]
Скачал: [ 2 ]
 
   
 
 
 
 
Родина / Чужой среди своих / Homeland--- • Год выпуска: 2018
• Страна: США
• Жанр: триллер, драма, криминал, детектив
• Продолжительность: ~00:59:00
• Перевод: Профессиональный (многоголосый закадровый) | LostFilm-• Режиссёр: Лесли Линка Глаттер, Майкл Куэста, Дэниэл Эттиэс
• В ролях: Клэр Дэйнс, Элизабет Марвел, Мори Стерлинг, Лайнас Роуч, Джейк Уэбер, Морган Спектор, Мэнди Патинкин, Ф. Мюррей Абрахам
• Описание: В начале сезона, Кэрри оставила работу в Белом доме и переехала обратно в Вашингтон, и теперь она живёт вместе со своей сестрой Мэгги, чтобы бороться с администрацией Кин и обеспечить освобождение 200 членов разведывательного сообщества, которые были арестованы по приказу президента Кин в прошлом сезоне.- -• Качество: WEB-DLRip
• Формат: AVI
• Видео: XviD, 720x400 (16:9), 23,976 fps, ~1500 Kbps, 0.216 bits/pixel
• Аудио Rus: MP3, 48,0 kHz, 2 ch, 128 kbps | LostFilm
• Аудио Eng: MP3, 48,0 kHz, 2 ch, 128 kbps
• Субтитры: Русские, английские
• Реклама: Отсутствует---

Релиз

Рип: DriverV

Список серий

01. Enemy of the State / Враг государства
02. Rebel Rebel / Бунтари
03. Standoff / Тупик
04. Like Bad at Things / Типа неумеха
05. Active Measures / Активные меры
06. Species Jump / Эволюция мема
07. Andante / Анданте
08. Lies, Amplifiers, F**king Twitter / Вранье, боты, чертов твиттер
09. Useful Idiot / Полезный дурачок
10. Clarity / Ясность
11. All In / Ва-банк
12. Paean to the People / Народная победа

MediaInfo

ОбщееПолное имя                               : D:\Родина (сезон 7) Homeland (2018) WEB-DLRip - LostFilm\Homeland.S07E01.WEB-DLRip.Rus.Eng.DV.LostFilm.aviФормат                                   : AVIФормат/Информация                        : Audio Video InterleaveРазмер файла                             : 755 МбайтПродолжительность                        : 59 м. 55 с.Общий поток                              : 1761 Кбит/секНазвание фильма                          : Homeland.S07E01.WEB-DLRip.Rus.Eng.DV.LostFilm / NNM-ClubПрограмма кодирования                    : VirtualDubModRus 1.5.10.2 (build 2542/release)Библиотека кодирования                   : VirtualDubMod build 2542/release
ВидеоИдентификатор : 0Формат : MPEG-4 VisualПрофиль формата : Advanced [email protected]Настройки формата : BVOP2Параметр BVOP формата : 2Параметр QPel формата : НетПараметр GMC формата : Без точки переходаПараметр матрицы формата : Default (H.263)Идентификатор кодека : XVIDИдентификатор кодека/Подсказка : XviDПродолжительность : 59 м. 55 с.Битрейт : 1491 Кбит/секШирина : 720 пикселейВысота : 400 пикселейСоотношение сторон : 16:9Частота кадров : 23,976 (24000/1001) кадра/секЦветовое пространство : YUVСубдискретизация насыщенности : 4:2:0Битовая глубина : 8 битТип развёртки : ПрогрессивнаяМетод сжатия : С потерямиБит/(Пиксели*Кадры) : 0.216Размер потока : 639 Мбайт (85%)Заголовок : Rip by DriverV / NNM-ClubБиблиотека кодирования : XviD 67
Аудио #1Идентификатор : 1Формат : MPEG AudioВерсия формата : Version 1Профиль формата : Layer 3Настройки формата : Joint stereo / MS StereoИдентификатор кодека : 55Идентификатор кодека/Подсказка : MP3Продолжительность : 59 м. 55 с.Вид битрейта : ПостоянныйБитрейт : 128 Кбит/секКаналы : 2 каналаЧастота : 48,0 КГцМетод сжатия : С потерямиРазмер потока : 54,9 Мбайт (7%)Выравнивание : Соединение по промежуткамПродолжительность промежутка : 42 мс. (1,00 видеокадр)Время предзагрузки промежутка : 504 мс.
Аудио #2Идентификатор : 2Формат : MPEG AudioВерсия формата : Version 1Профиль формата : Layer 3Настройки формата : Joint stereo / MS StereoИдентификатор кодека : 55Идентификатор кодека/Подсказка : MP3Продолжительность : 59 м. 55 с.Вид битрейта : ПостоянныйБитрейт : 128 Кбит/секКаналы : 2 каналаЧастота : 48,0 КГцМетод сжатия : С потерямиРазмер потока : 54,9 Мбайт (7%)Выравнивание : Соединение по промежуткамПродолжительность промежутка : 42 мс. (1,00 видеокадр)Время предзагрузки промежутка : 504 мс.
- ---

[Цитировать]



Показать сообщения:    

Текущее время: 22-Окт 19:25

Часовой пояс: UTC + 6


Вы не можете начинать темы
Вы не можете отвечать на сообщения
Вы не можете редактировать свои сообщения
Вы не можете удалять свои сообщения
Вы не можете голосовать в опросах
Вы не можете прикреплять файлы к сообщениям
Вы не можете скачивать файлы

!ВНИМАНИЕ!
Сайт не предоставляет электронные версии произведений, а занимается лишь коллекционированием и каталогизацией ссылок, присылаемых и публикуемых на форуме нашими читателями. Если вы являетесь правообладателем какого-либо представленного материала и не желаете, чтобы ссылка на него находилась в нашем каталоге, свяжитесь с нами, и мы незамедлительно удалим ее. Файлы для обмена на трекере предоставлены пользователями сайта, и администрация не несет ответственности за их содержание. Просьба не заливать файлы, защищенные авторскими правами, а также файлы нелегального содержания!