[ Сегодня идет свободное скачивание без начисления Download ]


Статистика раздачи
Скачал: [ 14 ]
 
   
 
 
 
 
Свободный штат Джонса / Free State of Jones
Информация о фильме
Название: Свободный штат Джонса
Оригинальное название: Free State of Jones
Год выпуска: 2016
Жанр: Боевик, драма, военный, биография, история
Режиссер: Гэри Росс
В ролях: Мэттью МакКонахи, Гугу Мбата-Роу, Махершала Али, Кери Расселл, Кристофер Берри, Шон Бриджерс, Джейкоб Лофленд, Томас Мерфи, Билл Тангради, Брайан Франклин
О фильме: События фильма разворачиваются во время гражданской войны в США. После участия в битве при Коринфе Ньютон Найт — бедный фермер из Миссисипи возглавляет группу дезертиров из армии Конфедерации, выступающих за отмену рабства. Вместе они обустраиваются в округе Джонс, и начинают борьбу против сил Конфедерации.

Страна: США
Студия: Bluegrass Films, Larger Than Life Productions, Route One Films, Vendian Entertainment
Продолжительность: 02:19:55
Перевод: Профессиональный (многоголосый, закадровый) | iTunes
Файл
Качество: BDRip-AVC
Формат: MKV
Видео: AVC/H.264, 1024x554, ~1800 kbps
Аудио: AC3, 6 ch, 384 kbps
Субтитры: Русские, английские

MediaInfo

General
Unique ID : 193099164530777289055996541788577049792 (0x91458BDBAAAE3B9747CFDFC85213ACC0)
Complete name : Свободный штат Джонса.(2016).BDRIP-AVC.mkv
Format : Matroska
Format version : Version 4
File size : 2.14 GiB
Duration : 2 h 19 min
Overall bit rate : 2 185 kb/s
Movie name : Свободный штат Джонса
Encoded date : UTC 2018-09-29 06:12:53
Writing application : mkvmerge v27.0.0 ('Metropolis') 64-bit
Writing library : libebml v1.3.6 + libmatroska v1.4.9
Cover : Yes
Attachments : cover.jpg
Video
ID : 1
Format : AVC
Format/Info : Advanced Video Codec
Format profile : High@L4
Format settings : CABAC / 10 Ref Frames
Format settings, CABAC : Yes
Format settings, ReFrames : 10 frames
Codec ID : V_MPEG4/ISO/AVC
Duration : 2 h 19 min
Bit rate : 1 800 kb/s
Width : 1 024 pixels
Height : 554 pixels
Display aspect ratio : 1.85:1
Original display aspect rat : 1.85:1
Frame rate mode : Constant
Frame rate : 23.976 (24000/1001) FPS
Color space : YUV
Chroma subsampling : 4:2:0
Bit depth : 8 bits
Scan type : Progressive
Bits/(Pixel*Frame) : 0.132
Stream size : 1.76 GiB (82%)
Title : Free State of Jones
Writing library : x264 core 148
Encoding settings : cabac=1 / ref=10 / deblock=1:-2:-2 / analyse=0x3:0x113 / me=umh / subme=11 / psy=1 / psy_rd=1,15:0,20 / mixed_ref=1 / me_range=24 / chroma_me=1 / trellis=2 / 8x8dct=1 / cqm=0 / deadzone=21,11 / fast_pskip=1 / chroma_qp_offset=-3 / threads=6 / lookahead_threads=1 / sliced_threads=0 / nr=0 / decimate=1 / interlaced=0 / bluray_compat=0 / constrained_intra=0 / bframes=11 / b_pyramid=2 / b_adapt=1 / b_bias=0 / direct=1 / weightb=1 / open_gop=0 / weightp=2 / keyint=240 / keyint_min=24 / scenecut=40 / intra_refresh=0 / rc_lookahead=40 / rc=2pass / mbtree=1 / bitrate=1800 / ratetol=1,0 / qcomp=0,60 / qpmin=0 / qpmax=69 / qpstep=4 / cplxblur=20,0 / qblur=0,5 / vbv_maxrate=62500 / vbv_bufsize=78125 / nal_hrd=none / filler=0 / ip_ratio=1,40 / aq=1:1,00
Language : English
Default : Yes
Forced : No
Color range : Limited
Color primaries : BT.709
Transfer characteristics : BT.709
Matrix coefficients : BT.709
Audio
ID : 2
Format : AC-3
Format/Info : Audio Coding 3
Commercial name : Dolby Digital
Codec ID : A_AC3
Duration : 2 h 19 min
Bit rate mode : Constant
Bit rate : 384 kb/s
Channel(s) : 6 channels
Channel layout : L R C LFE Ls Rs
Sampling rate : 48.0 kHz
Frame rate : 31.250 FPS (1536 SPF)
Bit depth : 16 bits
Compression mode : Lossy
Delay relative to video : -83 ms
Stream size : 383 MiB (18%)
Title : MVO[_iTunes]
Language : Russian
Service kind : Complete Main
Default : Yes
Forced : No
Text #1
ID : 3
Format : UTF-8
Codec ID : S_TEXT/UTF8
Codec ID/Info : UTF-8 Plain Text
Duration : 2 h 11 min
Bit rate : 59 b/s
Count of elements : 1340
Stream size : 58.0 KiB (0%)
Title : RUS
Language : Russian
Default : No
Forced : No
Text #2
ID : 4
Format : UTF-8
Codec ID : S_TEXT/UTF8
Codec ID/Info : UTF-8 Plain Text
Duration : 2 h 11 min
Bit rate : 41 b/s
Count of elements : 1464
Stream size : 39.7 KiB (0%)
Title : ENG_full
Language : English
Default : No
Forced : No
Text #3
ID : 5
Format : UTF-8
Codec ID : S_TEXT/UTF8
Codec ID/Info : UTF-8 Plain Text
Duration : 2 h 11 min
Bit rate : 45 b/s
Count of elements : 1679
Stream size : 44.2 KiB (0%)
Title : ENG_SDH
Language : English
Default : No
Forced : No
Menu
00:00:00.000 : :Chapter 1
00:08:19.582 : :Chapter 2
00:13:55.918 : :Chapter 3
00:22:14.374 : :Chapter 4
00:30:56.438 : :Chapter 5
00:37:40.132 : :Chapter 6
00:46:02.760 : :Chapter 7
00:49:49.319 : :Chapter 8
00:56:08.823 : :Chapter 9
01:05:06.235 : :Chapter 10
01:13:32.324 : :Chapter 11
01:19:58.960 : :Chapter 12
01:30:22.875 : :Chapter 13
01:36:43.297 : :Chapter 14
01:42:49.872 : :Chapter 15
01:50:23.617 : :Chapter 16
01:55:44.979 : :Chapter 17
02:02:43.856 : :Chapter 18
02:06:56.650 : :Chapter 19
02:13:12.317 : :Chapter 20

Скриншоты


[Цитировать]



Показать сообщения:    

Текущее время: 13-Ноя 11:47

Часовой пояс: UTC + 6


Вы не можете начинать темы
Вы не можете отвечать на сообщения
Вы не можете редактировать свои сообщения
Вы не можете удалять свои сообщения
Вы не можете голосовать в опросах
Вы не можете прикреплять файлы к сообщениям
Вы не можете скачивать файлы

!ВНИМАНИЕ!
Сайт не предоставляет электронные версии произведений, а занимается лишь коллекционированием и каталогизацией ссылок, присылаемых и публикуемых на форуме нашими читателями. Если вы являетесь правообладателем какого-либо представленного материала и не желаете, чтобы ссылка на него находилась в нашем каталоге, свяжитесь с нами, и мы незамедлительно удалим ее. Файлы для обмена на трекере предоставлены пользователями сайта, и администрация не несет ответственности за их содержание. Просьба не заливать файлы, защищенные авторскими правами, а также файлы нелегального содержания!