[ Сегодня идет свободное скачивание без начисления Download ]


Статистика раздачи
Качаю: [ 1 ]
Скачал: [ 2 ]
 
   
 
 
 
 
Кривое зеркало Год выпуска: 2003-2013
Жанр: Юмористическая передача
Страна: Россия
Производство: Творческое объединение «ТРИ ДО» (2003—2004)
Телекомпания «ТВМ» (2004—2007)
Телекомпания «Эксклюзив» (2007—2013)
Выпуски: 01-96 из 96
Общая продолжительность: 169:48:59
Перевод: Не требуется
Субтитры: Нет
Автор: Евгений Петросян
Режиссер: Константин Владимиров
В ролях: Евгений Петросян, Елена Степаненко, Александр Морозов, Игорь Христенко, Михаил Вашуков, Михаил Церишенко, Карен Аванесян, Михаил Смирнов, Виктор Разумовский, Алексей Буховцов, Михаил Белов, Обид Асомов
Описание: «Кривое зеркало» — юмористическая телепередача (театр под руководством Евгения Петросяна), выходящая на канале «Россия-1». Спектакли театра весьма разнообразны: это и эстрадные мюзиклы, и традиционный, но в современном звучании театр миниатюр, это и пародийные дивертисменты программ, куда входят практически все виды разговорного жанра. Программа снималась в концертном зале «Академический» и в Государственном музыкальном театре национального искусства п/р Владимира Назарова.
Качество: VHSRip, SATRip, TVRip, DVDRip
Формат: MP4
Видео кодек: AVC
Аудио кодек: AAC
Видео: 480x360, 25 fps, 580 kbps
Аудио: 2 ch, 48 kHz, 128 Kbps

Скриншоты



MediaInfo

General
Complete name : D:\Видео\Кривое зеркало\81.mp4
Format : MPEG-4
Format profile : Base Media
Codec ID : isom (isom/avc1/iso6)
File size : 513 MiB
Duration : 1h 40mn
Overall bit rate mode : Variable
Overall bit rate : 712 Kbps
Encoded date : UTC 2018-09-27 19:15:39
Tagged date : UTC 2018-09-27 19:15:39
Video
ID : 1
Format : AVC
Format/Info : Advanced Video Codec
Format profile : [email protected]
Format settings, CABAC : Yes
Format settings, ReFrames : 8 frames
Codec ID : avc1
Codec ID/Info : Advanced Video Coding
Duration : 1h 40mn
Bit rate : 580 Kbps
Maximum bit rate : 1 762 Kbps
Width : 480 pixels
Height : 360 pixels
Display aspect ratio : 4:3
Frame rate mode : Constant
Frame rate : 25.000 fps
Color space : YUV
Chroma subsampling : 4:2:0
Bit depth : 8 bits
Scan type : Progressive
Bits/(Pixel*Frame) : 0.134
Stream size : 417 MiB (81%)
Title : [email protected]
Writing library : x264 core 146 r2538 121396c
Encoding settings : cabac=1 / ref=8 / deblock=1:0:0 / analyse=0x3:0x113 / me=hex / subme=8 / psy=1 / psy_rd=1.00:0.00 / mixed_ref=1 / me_range=16 / chroma_me=1 / trellis=1 / 8x8dct=1 / cqm=0 / deadzone=21,11 / fast_pskip=1 / chroma_qp_offset=-2 / threads=3 / lookahead_threads=1 / sliced_threads=0 / nr=0 / decimate=1 / interlaced=0 / bluray_compat=0 / constrained_intra=0 / bframes=8 / b_pyramid=2 / b_adapt=1 / b_bias=0 / direct=3 / weightb=1 / open_gop=0 / weightp=2 / keyint=250 / keyint_min=25 / scenecut=40 / intra_refresh=0 / rc_lookahead=40 / rc=2pass / mbtree=1 / bitrate=580 / ratetol=1.0 / qcomp=0.60 / qpmin=0 / qpmax=69 / qpstep=4 / cplxblur=20.0 / qblur=0.5 / ip_ratio=1.40 / aq=1:1.00
Encoded date : UTC 2018-09-27 19:15:39
Tagged date : UTC 2018-09-27 19:16:05
Audio
ID : 2
Format : AAC
Format/Info : Advanced Audio Codec
Format profile : LC
Codec ID : 40
Duration : 1h 40mn
Bit rate mode : Variable
Bit rate : 128 Kbps
Maximum bit rate : 133 Kbps
Channel(s) : 2 channels
Channel positions : Front: L R
Sampling rate : 48.0 KHz
Frame rate : 46.875 fps (1024 spf)
Compression mode : Lossy
Stream size : 92.1 MiB (18%)
Encoded date : UTC 2018-09-27 17:06:56
Tagged date : UTC 2018-09-27 19:16:05


Последний раз редактировалось: Diktor (2018-09-29 19:33), всего редактировалось 17 раз(а)

[Цитировать]

Всё, оформил


Последний раз редактировалось: Diktor (2018-09-09 23:26), всего редактировалось 1 раз

[Цитировать]

Буду обновлять по возможности: пользуюсь ноутом и xDSL, поэтому от помощи в сидировании не откажусь

[Цитировать]

Diktor, сначала скачать надо! blush

[Цитировать]

Благодарю за релиз !!! dance dance2 clapping

[Цитировать]

Обновил: добавил выпусков

[Цитировать]

Приятно смотреть, как будто назад в прошлое окунулся с видеомагнитофонами, правда видеком я пользовался в 80-90-х годах, а с 2000-х годов уже DVD-ишник имел и потом уже всё через ПК с ноутбуком. good good2 good Классный релиз, только в начале правда звук плавает, но это такое было на видеомагнитофонах из-за низкого качества видеокассеты и расстроенного лентопротяга.


Последний раз редактировалось: olega4 (2018-09-11 20:25), всего редактировалось 1 раз

[Цитировать]

olega4, торрент перезалил

[Цитировать]

Раздача обновлена

[Цитировать]

Раздача укомплектована,
Выпуски:: 01-96 из 96
Общая продолжительность: 169:48:59
Приятного просмотра!

[Цитировать]



Показать сообщения:    

Текущее время: 22-Окт 23:51

Часовой пояс: UTC + 6


Вы не можете начинать темы
Вы не можете отвечать на сообщения
Вы не можете редактировать свои сообщения
Вы не можете удалять свои сообщения
Вы не можете голосовать в опросах
Вы не можете прикреплять файлы к сообщениям
Вы не можете скачивать файлы

!ВНИМАНИЕ!
Сайт не предоставляет электронные версии произведений, а занимается лишь коллекционированием и каталогизацией ссылок, присылаемых и публикуемых на форуме нашими читателями. Если вы являетесь правообладателем какого-либо представленного материала и не желаете, чтобы ссылка на него находилась в нашем каталоге, свяжитесь с нами, и мы незамедлительно удалим ее. Файлы для обмена на трекере предоставлены пользователями сайта, и администрация не несет ответственности за их содержание. Просьба не заливать файлы, защищенные авторскими правами, а также файлы нелегального содержания!