[ Сегодня идет свободное скачивание без начисления Download ]


Статистика раздачи
Качаю: [ 1 ]
Скачал: [ 2 ]
 
   
 
 
 
 
Гиперсомния / Hipersomnia (2016) WEBRip Информация о фильме
Название: Гиперсомния
Оригинальное название: Hipersomnia
Год выхода: 2016
Жанр: Триллер
Режиссер: Гэбриел Греко
В ролях: Yamila Saud, Херардо Романо, Химена Барон, Ванеса Гонсалес, Мария Кандела Ветрано, Флоренция Торренте, Насарено Касеро, София Гала, Густаво Гарсон, Белен Шаванн
О фильме: Милена хочет стать актрисой и играть на сцене. Не имея опыта и хоть какого-то актёрского образования, она соглашается на сомнительное прослушивание у одного немолодого режиссёра. Во время прослушивания Милена вдруг оказывается в совершенно незнакомом месте, откуда не так просто выбраться.

Страна: Аргентина
Студия: "Benteveo Producciones, Estudios CREPUSCULUM, Instituto Nacional de Cine y Artes Audiovisuales (INCAA), MyS Producciones, Television Federal (Telefe)"
Продолжительность: 01:24:00
Перевод: Любительский (одноголосый, закадровый) [BadBajo]
Субтитры: Нет
Файл
Кодек: XviD
Качество: WEBRip
Видео: 720x304 (2.37:1), 24 fps, XviD build 73 ~959 kbps avg, 0.18 bit/pixel
Звук: 48 kHz, MPEG Layer 3, 2 ch, ~192.00 kbps avg

MediaInfo

General
Complete name : Hipersomnia.2016.WEBRip.ot.Portablius.avi
Format : AVI
Format/Info : Audio Video Interleave
File size : 698 MiB
Duration : 1 h 24 min
Overall bit rate : 1 161 kb/s
Writing application : VirtualDubMod 1.5.10.3 | www.virtualdub-fr.org || (build 2550/release)
Writing library : VirtualDubMod build 2550/release
Video
ID : 0
Format : MPEG-4 Visual
Format profile : Advanced [email protected]
Format settings, BVOP : 1
Format settings, QPel : No
Format settings, GMC : No warppoints
Format settings, Matrix : Custom
Codec ID : XVID
Codec ID/Hint : XviD
Duration : 1 h 24 min
Bit rate : 960 kb/s
Width : 720 pixels
Height : 304 pixels
Display aspect ratio : 2.35:1
Frame rate : 24.000 FPS
Color space : YUV
Chroma subsampling : 4:2:0
Bit depth : 8 bits
Scan type : Progressive
Compression mode : Lossy
Bits/(Pixel*Frame) : 0.183
Stream size : 577 MiB (83%)
Writing library : XviD 73
Audio
ID : 1
Format : MPEG Audio
Format version : Version 1
Format profile : Layer 3
Codec ID : 55
Codec ID/Hint : MP3
Duration : 1 h 24 min
Bit rate mode : Constant
Bit rate : 192 kb/s
Channel(s) : 2 channels
Sampling rate : 48.0 kHz
Compression mode : Lossy
Stream size : 115 MiB (17%)
Alignment : Aligned on interleaves
Interleave, duration : 42 ms (1.00 video frame)
Interleave, preload duratio : 504 ms
Writing library : LAME3.99r
Encoding settings : -m s -V 4 -q 2 -lowpass 18.6 -b 192

Скриншоты

[Цитировать]



Показать сообщения:    

Текущее время: 20-Окт 22:13

Часовой пояс: UTC + 6


Вы не можете начинать темы
Вы не можете отвечать на сообщения
Вы не можете редактировать свои сообщения
Вы не можете удалять свои сообщения
Вы не можете голосовать в опросах
Вы не можете прикреплять файлы к сообщениям
Вы не можете скачивать файлы

!ВНИМАНИЕ!
Сайт не предоставляет электронные версии произведений, а занимается лишь коллекционированием и каталогизацией ссылок, присылаемых и публикуемых на форуме нашими читателями. Если вы являетесь правообладателем какого-либо представленного материала и не желаете, чтобы ссылка на него находилась в нашем каталоге, свяжитесь с нами, и мы незамедлительно удалим ее. Файлы для обмена на трекере предоставлены пользователями сайта, и администрация не несет ответственности за их содержание. Просьба не заливать файлы, защищенные авторскими правами, а также файлы нелегального содержания!