[ Сегодня идет свободное скачивание без начисления Download ]


Статистика раздачи
Качаю: [ 2 ]
Скачал: [ 2 ]
 
   
 
 
 
 
Континуум / Continuum
Год выпуска: 2012-2015
Страна: США, Канада
Жанр: фантастика, триллер, драма
Продолжительность: 00:43:59
Режиссёр: Пэт Уильямс, Джон Кассар
В ролях: Рэйчел Николс, Виктор Уэбстер, Эрик Кнудсен, Стефен Лобо, Ричард Хэрмон, Брайан Маркинсон, Дженнифер Спенс, Джон Генри Рирдон, Роджер Р. Кросс, Лекса Дойг
Описание: Кира Кэмерон, уникальный специалист, и компьютерный гений по имени Садлер в недалеком прошлом будут пытаться остановить группу террористов-фанатиков: Попавшая в 2012-й год вместе с бегущими от властей экстремистами Кира устраивается обычным сотрудником в обычное отделение полиции - так начинается новый фантастический сериал, в котором герои будут перемещаться не только в пространстве, но и во времени.
Сэмпл
Качество: BDRip [Континуум / Continuum 1080p BD-Remux HDCLUB]
Формат: AVI
Видео: 704x400 (1.76:1), 23.976 fps, XviD build 73 ~1999 kbps avg, 0.30 bit/pixel
Аудио: 48 kHz, AC3 Dolby Digital, 3/2 (L,C,R,l,r) + LFE ch, ~384 kbps
Субтитры: отсутствуют

Список серий

1 сезон 01 (01) - Петля времени / A Stitch in Time
02 (02) - Лихое время / Fast Times
03 (03) - Трата времени / Wasting Time
04 (04) - Вопрос времени / Matter of Time
05 (05) - Испытание временем / A Test of Time
06 (06) - Время на исходе / Time's Up
07 (07) - Политика времени / The Politics of Time
08 (08) - Игровое время / Playtime
09 (09) - Семейное время / Family Time
10 (10) - Конец времени / End Times
2 сезон
01 (11) - Второй шанс / Second Chances
02 (12) - Доля секунды / Split Second
03 (13) - Переосмысление / Second Thoughts
04 (14) - Вторая кожа / Second Skin
05 (15) - Второе мнение / Second Opinion
06 (16) - Вторая правда / Second Truths
07 (17) - Вторая степень / Second Degree
08 (18) - Второе слушание / Second Listen
09 (19) - Секунды / Seconds
10 (20) - Вторая волна / Second Wave
11 (21) - Вторая попытка / Second Guess
12 (22) - Второй с конца / Second Last
13 (23) - Во второй раз / Second Time
3 сезон
01 (24) - Минута за минутой / Minute by Minute
02 (25) - Доброволец / Minute Man
03 (26) - Минута на победу / Minute to Win It
04 (27) - Минута решает всё / Minute Changes
05 (28) - 30 минут до эфира / 30 Minutes to Air
06 (29) - Лишняя минута / Wasted Minute
07 (30) - Минута на исходе / Waning Minute
08 (31) - Наши минуты спешат / So Do Our Minutes Hasten
09 (32) - Минута молчания / Minute of Silence
10 (33) - Минутная революция / Revolutions Per Minute
11 (34) - 3 минуты до полуночи / 3 Minutes to Midnight
12 (35) - Двухминутное предупреждение / The Dying Minutes
13 (36) - Последняя минута / Last Minute
4 сезон
01 (37) - Потерянные часы / Lost Hours
02 (38) - Час пик / Rush Hour
03 (39) - Сила времени / Power Hour
04 (40) - Нулевой час / Zero Hour
05 (41) - Часы отчаяния / The Desperate Hours
06 (42) - Финальный час / Final Hour

MediaInfo

General
Complete name : H:\Сериалы в работе\Continuum.2012-2015.bdrip_[teko]\Season_01\s01e01_A.Stitch.In.Time.avi
Format : AVI
Format/Info : Audio Video Interleave
File size : 753 MiB
Duration : 43mn 59s
Overall bit rate : 2 393 Kbps
Writing application : VirtualDubMod 1.5.10.3 | www.virtualdub-fr.org || (build 2550/release)
Writing library : VirtualDubMod build 2550/release
Video
ID : 0
Format : MPEG-4 Visual
Format profile : Advanced [email protected]
Format settings, BVOP : 2
Format settings, QPel : No
Format settings, GMC : No warppoints
Format settings, Matrix : Custom
Codec ID : XVID
Codec ID/Hint : XviD
Duration : 43mn 59s
Bit rate : 2 000 Kbps
Width : 704 pixels
Height : 400 pixels
Display aspect ratio : 16:9
Frame rate : 23.976 (23976/1000) fps
Color space : YUV
Chroma subsampling : 4:2:0
Bit depth : 8 bits
Scan type : Progressive
Compression mode : Lossy
Bits/(Pixel*Frame) : 0.296
Stream size : 629 MiB (84%)
Writing library : XviD 73
Audio
ID : 1
Format : AC-3
Format/Info : Audio Coding 3
Mode extension : CM (complete main)
Format settings, Endianness : Big
Codec ID : 2000
Duration : 43mn 59s
Bit rate mode : Constant
Bit rate : 384 Kbps
Channel(s) : 6 channels
Channel positions : Front: L C R, Side: L R, LFE
Sampling rate : 48.0 KHz
Frame rate : 31.250 fps (1536 spf)
Compression mode : Lossy
Stream size : 121 MiB (16%)
Alignment : Split accross interleaves
Interleave, duration : 42 ms (1.00 video frame)
Interleave, preload duratio : 500 ms

[Цитировать]



Показать сообщения:    

Текущее время: 22-Окт 19:21

Часовой пояс: UTC + 6


Вы не можете начинать темы
Вы не можете отвечать на сообщения
Вы не можете редактировать свои сообщения
Вы не можете удалять свои сообщения
Вы не можете голосовать в опросах
Вы не можете прикреплять файлы к сообщениям
Вы не можете скачивать файлы

!ВНИМАНИЕ!
Сайт не предоставляет электронные версии произведений, а занимается лишь коллекционированием и каталогизацией ссылок, присылаемых и публикуемых на форуме нашими читателями. Если вы являетесь правообладателем какого-либо представленного материала и не желаете, чтобы ссылка на него находилась в нашем каталоге, свяжитесь с нами, и мы незамедлительно удалим ее. Файлы для обмена на трекере предоставлены пользователями сайта, и администрация не несет ответственности за их содержание. Просьба не заливать файлы, защищенные авторскими правами, а также файлы нелегального содержания!