[ Сегодня идет свободное скачивание без начисления Download ]


Статистика раздачи
Скачал: [ 4 ]
 
   
 
 
 
 
Джессика Джонс / Jessica Jones
«It's time the world knew her name»
• Год выпуска: 2018
• Страна: США
• Жанр: фантастика, боевик, драма, криминал, экранизация комиксов
• Продолжительность: ~ 00:55:00
• Перевод: Профессиональный (многоголосый закадровый) | NewStudio
• Режиссёр: С.Дж. Кларксон, Дэвид Петрарка, Стивен Серджик
• В ролях: Кристен Риттер, Дэвид Теннант, Майк Колтер, Рэйчел Тейлор, Кэрри-Энн Мосс, Эйка Дарвилл, Эрин Мориарти, Уил Трэвэл, Сьюзи Абромейт, Фил Каппадора
• Описание: Не так давно Джессика Джонс была супергероем, но ее недолгое пребывание в этой роли закончилось трагедией. Сейчас она восстанавливает свою личную жизнь и карьеру вспыльчивого, язвительного и задиристого частного детектива в Адской Кухне. Джессика пытается преодолеть ненависть к себе и справиться с посттравматическим стрессом, а также борется с внутренними и внешними демонами. А свои экстраординарные способности она использует для защиты тех, кто в ней нуждается, особенно если они могут заплатить за это.

• Качество: WEB-DLRip
• Формат: AVI
• Видео: XviD, ~ 1500 kbps, 720x400 (16:9), 23,976 fps
• Аудио: MP3, 48,0 КГц, 2 ch, 192 kbps - Rus
• Субтитры: отсутствуют
• Реклама: отсутствует[

MediaInfo

Код:
General
Complete name               : M:\Сериалы\Джессика Джонс\Jessica Jones (season 02) NewStudio\Jessica.Jones.s02e02.WEBRip.NewStudio.avi
Format                      : AVI
Format/Info                 : Audio Video Interleave
File size                   : 683 MiB
Duration                    : 56 min 21 s
Overall bit rate            : 1 694 kb/s
Writing application         : VirtualDubMod 1.5.10.3 | www.virtualdub-fr.org || (build 2550/release)
Writing library             : VirtualDubMod build 2550/release
Copyright                   : Hybrid 2017.12.25.1[br]Video
ID                          : 0
Format                      : MPEG-4 Visual
Format profile              : Advanced [email protected]
Format settings             : BVOP2
Format settings, BVOP       : 2
Format settings, QPel       : No
Format settings, GMC        : No warppoints
Format settings, Matrix     : Default (MPEG)
Codec ID                    : XVID
Codec ID/Hint               : XviD
Duration                    : 56 min 21 s
Bit rate                    : 1 495 kb/s
Width                       : 720 pixels
Height                      : 400 pixels
Display aspect ratio        : 16:9
Frame rate                  : 23.976 (24000/1001) FPS
Original frame rate         : 23.976 (23976/1000) FPS
Color space                 : YUV
Chroma subsampling          : 4:2:0
Bit depth                   : 8 bits
Scan type                   : Progressive
Compression mode            : Lossy
Bits/(Pixel*Frame)          : 0.217
Stream size                 : 603 MiB (88%)
Writing library             : XviD 67[br]Audio
ID                          : 1
Format                      : MPEG Audio
Format version              : Version 1
Format profile              : Layer 3
Format settings             : Joint stereo / MS Stereo
Codec ID                    : 55
Codec ID/Hint               : MP3
Duration                    : 55 min 30 s
Bit rate mode               : Constant
Bit rate                    : 192 kb/s
Channel(s)                  : 2 channels
Sampling rate               : 48.0 kHz
Frame rate                  : 41.667 FPS (1152 SPF)
Compression mode            : Lossy
Stream size                 : 76.2 MiB (11%)
Alignment                   : Split accross interleaves
Interleave, duration        : 42  ms (1.02 video frame)
Interleave, preload duratio : 500  ms
Writing library             : LAME3.100

Скриншоты

[Цитировать]



Показать сообщения:    

Текущее время: 22-Окт 02:09

Часовой пояс: UTC + 6


Вы не можете начинать темы
Вы не можете отвечать на сообщения
Вы не можете редактировать свои сообщения
Вы не можете удалять свои сообщения
Вы не можете голосовать в опросах
Вы не можете прикреплять файлы к сообщениям
Вы не можете скачивать файлы

!ВНИМАНИЕ!
Сайт не предоставляет электронные версии произведений, а занимается лишь коллекционированием и каталогизацией ссылок, присылаемых и публикуемых на форуме нашими читателями. Если вы являетесь правообладателем какого-либо представленного материала и не желаете, чтобы ссылка на него находилась в нашем каталоге, свяжитесь с нами, и мы незамедлительно удалим ее. Файлы для обмена на трекере предоставлены пользователями сайта, и администрация не несет ответственности за их содержание. Просьба не заливать файлы, защищенные авторскими правами, а также файлы нелегального содержания!