[ Сегодня идет свободное скачивание без начисления Download ]


Статистика раздачи
Нет
 
   
 
 
 
 
Секретные материалы + бонусы / The X-Files + bonuses + «Борьба за будущее» / Fight the Future [1-9 сезон: серий 201] (1993-2002) DVD-Remux- Год выпуска: 1993-2002
Страна: США, Канада
Производство: 20th Century Fox
Жанр: Фантастика-Продолжительность серии: ~00:44
Режиссер: Крис Картер/Chris Carter
Актеры: Дэвид Духовны, Джиллиан Андерсон, Митч Пилегги, Уильям Б. Дэвис, Николас Ли, Том Брэйдвуд, Дин Хаглунд, Брюс Харвуд-Переводы: 2x Авторский |одноголосный Сергей Визгунов, Юрий Живов| + 4x Профессиональный |многоголосный закадровий ОРТ (четырёхголосный), Рен-ТВ (двухголосный), Лазер-видео (двухголосный), Tycoon studio (двухголосный)| + 3x Украинский |Кiно 2+2 (двухголосный), СТБ (двухголосный), 1+1 (двухголосный)| + Оригинал |английский|
Субтитры: Русские, английские, французские, испанские, итальянские, немецкие- -О сериале:
Секретные материалы — научно-фантастический и мистический сериал о двух агентах ФБР: Фоксе Малдере и Дане Скалли.
Специальному агенту Дане Скалли, доктору и выпускнику академии ФБР в Виргинии, поручают работу в паре с агентом Фоксом Малдером над проектом «Секретные материалы» — архивом таинственных, нерешённых дел ФБР, которые зачастую связаны с паранормальными явлениями, случаями вампиризма и оборотничества, нападением генетических мутантов, свидетельствами о похищении людей пришельцами…
Малдер верит в пришельцев и пытается убедить скептика Скалли, что не всё и не всегда поддаётся разумному объяснению. Это связано с детством Малдера, душевной травмой, которую он перенёс в связи с исчезновением его сестры. Малдер убеждён, что её похитили инопланетяне, и пытается выяснить, как; это терзает его на протяжении всей жизни. Также отец Малдера своими поступками в прошлом повлиял на его выбор в будущем. В своих дискуссиях Малдер и Скалли не столько стараются убедить друг друга, сколько получают удовольствие от самого общения. Постепенно первоначальное взаимное недоверие перерастает в дружбу, а чуть позже и в более глубокое чувство.
Эпизоды сериала делятся на два вида. Часть из них относятся к основной сюжетной линии, называемой мифологией сериала, которая на протяжении всех сезонов ведёт к своему логическому завершению и повествует о том, как Малдер и Скалли пытаются раскрыть тайны секретной правительственной организации, располагающей фактами о прибытии на Землю инопланетных цивилизаций. Подавляющее большинство других серий «Секретных материалов», которые называют монстрами недели, рассказывают об отдельных расследованиях Малдера и Скалли, как правило, не связанных с «мифологией». Тем не менее, некоторые «монстры недели» могут быть косвенно связаны с сюжетными линиями «мифологии», например, в том, что касается заговоров и интриг внутри ФБР и правительства США, личной жизни главных героев и второстепенных персонажей, ключевых именно для «мифологии». Поэтому для всестороннего понимания и оценки художественной ценности сериала необходимо смотреть все его серии и даже несколько абстрагироваться от какого-либо разделения на «мифологические» и «немифологические».
Ближе к завершению сериала раскрывается его фундаментальная суть, которая проливает свет на большинство описываемых в нём событий; по задумке авторов, правда, как всегда, туманна, и истина ускользает в самый последний момент-

Содержание:

1 Сезон |23 эпизодa|

-Секретные материалы |1 Сезон|- Год выпуска: 1993
Продолжительность серии: ~00:44
Режиссер: Крис Картер/Chris Carter
Описание: 1 сезон сериала Секретные материалы состоит из 23-х эпизодов. Напарником специального агента Фокса Малдера назначена Дана Скалли, которая должна дать оценку его работе в проекте Секретные материалы. Он с детства верит, что его сестру похитили инопланетяне. Агентам, пытающимся доказать существование инопланетных цивилизаций и использование их технологий военными, предстоит вступить в противоборство с тайными силами в правительстве, которые им будут мешать. Тайный информатор помогает агентам Скалли и Малдеру разгадывать все новые и новые тайны.
1x00 - Pilot (Пилотная серия)
1x01 - Deep Throat (Глубокая глотка)
1x02 - Squeeze (Узкий)
1x03 - Conduit (Канал)
1x04 - The Jersey Devil (Дьявол из Джерси)
1x05 - Shadows (Тени)
1x06 - Ghost in the Machine (Дух из машины)
1x07 - Ice (Лёд)
1x08 - Space (Космос)
1x09 - Fallen Angel (Падший ангел)
1x10 - Eve (Ева)
1x11 - Fire (Огонь)
1x12 - Beyond the Sea (Где-то за морем)
1x13 - Gender-Bender (Транссексуал)
1x14 - Lazarus (Лазарь)
1x15 - Young at Heart (Юный сердцем)
1x16 - E.B.E. (В.Б.О.)
1x17 - Miracle Man (Чудотворец)
1x18 - Shapes (Сущности)
1x19 - Darkness Falls (И пала тьма)
1x20 - Tooms (Тумс)
1x21 - Born Again (Заново рождённый)
1x22 - Roland (Роланд)
1x23 - The Erlenmeyer Flask (Колба Эрленмейера)
Видеокодек: MPEG-2
Формат: MKV
Качество видео: DVD-Remux
Битрейт видео: ~4766 Кбит/сек
Размер кадра: 720x480 (720х540)
Аудио 1: Russian AC3 2.0, 256 Кбит/с - ВИЗГУНОВ
Аудио 2: Russian AC3 2.0, 192 Кбит/с - ЖИВОВ
Аудио 3: Russian MP3 2.0, 128 Кбит/с - Tycoon studio
Аудио 4: Russian AC3 2.0, 256 Кбит/с - ОРТ
Аудио 5: Russian MP3 2.0, 192 Кбит/с - REN-TV
Аудио 6: Ukrainian MP3 2.0, 128 Кбит/с - 1+1
Аудио 7: English AC3 5.1, 448 Кбит/с - Оригинал
Аудио 8: English AC3 2.0, 192 Кбит/с - Kомментарии
Аудио 9: French AC3 2.0, 192 Кбит/с
Скриншоты:

Общее
Формат : Matroska
Размер файла : 2,32 ГиБ
Продолжительность : 48 м.
Общий поток : 6887 Кбит/сек
Видео
Идентификатор : 1
Формат : MPEG Video
Версия формата : Version 2
Профайл формата : [email protected]
Параметры BVOP формата : Нет
Параметры матрицы формата : По умолчанию
Идентификатор кодека : V_MPEG2
Идентификатор кодека/Информация : MPEG 1 or 2 Video
Продолжительность : 48 м.
Вид битрейта : Переменный
Битрейт : 4766 Кбит/сек
Номинальный битрейт : 9800 Кбит/сек
Ширина : 720 пикс.
Высота : 480 пикс.
Соотношение кадра : 4:3
Частота кадров : 59,940 кадр/сек
Первичная частота кадров : 29,970 кадр/сек
Стандарт вещания : Component
Разрешение : 8 бит
Колориметрия : 4:2:0
Тип развёртки : Чересстрочная
Порядок развёртки : Верхнее поле первое
Бит/(Пиксели*Кадры) : 0.230
Размер потока : 1,60 ГиБ (69%)
Заголовок : Tycoon R1
Аудио #1
Идентификатор : 2
Формат : AC-3
Формат/Информация : Audio Coding 3
Идентификатор кодека : A_AC3
Продолжительность : 48 м.
Вид битрейта : Постоянный
Битрейт : 256 Кбит/сек
Канал(ы) : 2 канала(ов)
Расположение каналов : Front: L R
Частота : 48,0 КГц
Размер потока : 88,2 МиБ (4%)
Заголовок : ВИЗГУНОВ
Язык : Russian
Аудио #2
Идентификатор : 3
Формат : AC-3
Формат/Информация : Audio Coding 3
Идентификатор кодека : A_AC3
Продолжительность : 48 м.
Вид битрейта : Постоянный
Битрейт : 192 Кбит/сек
Канал(ы) : 2 канала(ов)
Расположение каналов : Front: L R
Частота : 48,0 КГц
Размер потока : 66,2 МиБ (3%)
Заголовок : ЖИВОВ
Язык : Russian
Аудио #3
Идентификатор : 4
Формат : MPEG Audio
Версия формата : Version 1
Профайл формата : Layer 3
Режим : Joint stereo
Format_Settings_ModeExtension : MS Stereo
Идентификатор кодека : A_MPEG/L3
Идентификатор кодека/Подсказка : MP3
Продолжительность : 48 м.
Вид битрейта : Постоянный
Битрейт : 128 Кбит/сек
Канал(ы) : 2 канала(ов)
Частота : 48,0 КГц
Размер потока : 44,1 МиБ (2%)
Заголовок : TYCOON
Язык : Russian
Аудио #4
Идентификатор : 5
Формат : AC-3
Формат/Информация : Audio Coding 3
Идентификатор кодека : A_AC3
Продолжительность : 48 м.
Вид битрейта : Постоянный
Битрейт : 256 Кбит/сек
Канал(ы) : 2 канала(ов)
Расположение каналов : Front: L R
Частота : 48,0 КГц
Размер потока : 88,2 МиБ (4%)
Заголовок : ОРТ
Язык : Russian
Аудио #5
Идентификатор : 6
Формат : MPEG Audio
Версия формата : Version 1
Профайл формата : Layer 3
Идентификатор кодека : A_MPEG/L3
Идентификатор кодека/Подсказка : MP3
Продолжительность : 48 м.
Вид битрейта : Постоянный
Битрейт : 192 Кбит/сек
Канал(ы) : 2 канала(ов)
Частота : 48,0 КГц
Размер потока : 66,2 МиБ (3%)
Заголовок : REN-TV
Библиотека кодирования : LAME3.91
Настройки программы : -m s -V 4 -q 2 -lowpass 18.7 -b 192
Язык : Russian
Аудио #6
Идентификатор : 7
Формат : MPEG Audio
Версия формата : Version 1
Профайл формата : Layer 3
Режим : Joint stereo
Format_Settings_ModeExtension : MS Stereo
Идентификатор кодека : A_MPEG/L3
Идентификатор кодека/Подсказка : MP3
Продолжительность : 48 м.
Вид битрейта : Постоянный
Битрейт : 128 Кбит/сек
Канал(ы) : 2 канала(ов)
Частота : 48,0 КГц
Размер потока : 44,1 МиБ (2%)
Заголовок : UKR
Язык : Ukrainian
Аудио #7
Идентификатор : 8
Формат : AC-3
Формат/Информация : Audio Coding 3
Идентификатор кодека : A_AC3
Продолжительность : 48 м.
Вид битрейта : Постоянный
Битрейт : 448 Кбит/сек
Канал(ы) : 6 канала(ов)
Расположение каналов : Front: L C R, Side: L R, LFE
Частота : 48,0 КГц
Размер потока : 154 МиБ (7%)
Заголовок : ENGLISH [AC3; 5.1]
Язык : English
Аудио #8
Идентификатор : 9
Формат : AC-3
Формат/Информация : Audio Coding 3
Идентификатор кодека : A_AC3
Продолжительность : 48 м.
Вид битрейта : Постоянный
Битрейт : 192 Кбит/сек
Канал(ы) : 2 канала(ов)
Расположение каналов : Front: L R
Частота : 48,0 КГц
Размер потока : 66,2 МиБ (3%)
Заголовок : ENGLISH [AC3; 2.0]
Язык : English
Аудио #9
Идентификатор : 10
Формат : AC-3
Формат/Информация : Audio Coding 3
Идентификатор кодека : A_AC3
Продолжительность : 48 м.
Вид битрейта : Постоянный
Битрейт : 192 Кбит/сек
Канал(ы) : 2 канала(ов)
Расположение каналов : Front: L R
Частота : 48,0 КГц
Размер потока : 66,2 МиБ (3%)
Заголовок : FRENCH
Язык : French
Текст #1
Идентификатор : 11
Формат : VobSub
Идентификатор кодека : S_VOBSUB
Идентификатор кодека/Информация : The same subtitle format used on DVDs
Заголовок : Tycoon
Язык : Russian
Текст #2
Идентификатор : 12
Формат : VobSub
Идентификатор кодека : S_VOBSUB
Идентификатор кодека/Информация : The same subtitle format used on DVDs
Язык : English
Текст #3
Идентификатор : 13
Формат : VobSub
Идентификатор кодека : S_VOBSUB
Идентификатор кодека/Информация : The same subtitle format used on DVDs
Язык : Spanish
Меню
00:00:00.000 : en:Chapter 01
00:02:15.802 : en:Chapter 02
00:11:34.326 : en:Chapter 03
00:14:43.115 : en:Chapter 04
00:17:03.722 : en:Chapter 05
00:20:16.615 : en:Chapter 06
00:23:22.334 : en:Chapter 07
00:30:33.731 : en:Chapter 08
00:34:31.903 : en:Chapter 09
00:38:42.853 : en:Chapter 10
00:43:41.485 : en:Chapter 11
00:47:43.260 : en:Chapter 12

2 Сезон |23 эпизодa|

-Секретные материалы |2 Сезон|- Год выпуска: 1994
Продолжительность серии: ~00:43
Режиссер: Крис Картер/Chris Carter
Описание: Во 2 сезоне Секретных материалов 25 эпизодов. Несмотря на то, что на них давят тайные силы в правительстве спецагенты Фокс Малдер и Дана Скалли продолжают свои расследования, стремясь доказать не только факт существования пришельцев, но и то, что технологиями внеземных цивилизаций пользуются военные. Им грозит реальная опасность – сначала похищается Скалли, затем организуется покушение на Малдера и, наконец, их противники наносят враги по семьям героев.
2x01 - Little Green Men (Маленькие зелёные человечки)
2x02 - The Host (Хозяин)
2x03 - Blood (Кровь)
2x04 - Sleepless (Неспящий)
2x05 - Duane Barry (Дуэйн Бэрри)
2x06 - Ascension (Восхождение)
2x07 - 3 (Троица)
2x08 - One Breath (Один вздох)
2x09 - Firewalker (Огнеход)
2x10 - Red Museum (Красный музей)
2x11 - Excelsius Dei (Слава Господня)
2x12 - Aubrey (Обри)
2x13 - Irresistible (Неотразимый)
2x14 - Die Hand Die Verletzt (Длань Наказующая)
2x15 - Fresh Bones (Свежие кости)
2x16 - Colony (Колония)
2x17 - End Game (Конец игры)
2x18 - Fearful Symmetry (Ужасающая симметрия)
2x19 - Dod Kalm (Точка спокойствия)
2x20 - Humbug (Розыгрыш)
2x21 - The Calusari (Калушари)
2x22 - F. Emasculata (Ф. Эмаскулата)
2x23 - Soft Light (Рассеяный свет)
2x24 - Our Town (Наш городок)
2x25 - Anasazi (Анасази)
Видеокодек: MPEG-2
Формат: MKV
Качество видео: DVD-Remux
Битрейт видео: ~5151 Кбит/сек
Размер кадра: 720x576 (768x576)
Аудио 1: Russian AC3 2.0, 256 Кбит/с - ВИЗГУНОВ
Аудио 2: Russian AC3 2.0, 256 Кбит/с - Комментарии
Аудио 3: Russian AC3 2.0, 192 Кбит/с - ЖИВОВ
Аудио 4: Russian MP3 2.0, 192 Кбит/с - Tycoon studio
Аудио 5: Russian AC3 2.0, 128 Кбит/с - ОРТ
Аудио 6: Russian MP3 2.0, 192 Кбит/с - REN-TV
Аудио 7: Ukrainian MP3 2.0, 128 Кбит/с - 1+1
Аудио 8: English AC3 5.1, 192 Кбит/с - Оригинал
Аудио 9: English AC3 2.0, 192 Кбит/с - Kомментарии
Аудио 10: French AC3 2.0, 192 Кбит/с
Аудио 11: Italian AC3 2.0, 192 Кбит/с
Скриншоты:

Формат : Matroska
Размер файла : 2,25 ГиБ
Продолжительность : 43 м.
Общий поток : 7410 Кбит/сек
Видео
Идентификатор : 1
Формат : MPEG Video
Версия формата : Version 2
Профайл формата : [email protected]
Параметры BVOP формата : Нет
Параметры матрицы формата : По умолчанию
Идентификатор кодека : V_MPEG2
Идентификатор кодека/Информация : MPEG 1 or 2 Video
Продолжительность : 43 м.
Вид битрейта : Переменный
Битрейт : 5151 Кбит/сек
Номинальный битрейт : 7500 Кбит/сек
Ширина : 720 пикс.
Высота : 576 пикс.
Соотношение кадра : 4:3
Частота кадров : 50,000 кадр/сек
Первичная частота кадров : 25,000 кадр/сек
Стандарт вещания : PAL
Color space : YUV
Chroma subsampling : 4:2:0
Bit depth : 8 бит
Тип развёртки : Чересстрочная
Порядок развёртки : Верхнее поле первое
Бит/(Пиксели*Кадры) : 0.248
Размер потока : 1,56 ГиБ (70%)
Заголовок : R2/R4
Аудио #1
Идентификатор : 2
Формат : AC-3
Формат/Информация : Audio Coding 3
Mode extension : CM (complete main)
Режим смешивания : Header stripping
Идентификатор кодека : A_AC3
Продолжительность : 43 м.
Вид битрейта : Постоянный
Битрейт : 256 Кбит/сек
Канал(ы) : 2 канала(ов)
Расположение каналов : Front: L R
Частота : 48,0 КГц
Bit depth : 16 бит
Задержка видео : -80 мс.
Размер потока : 79,5 МиБ (3%)
Заголовок : ВИЗГУНОВ [AC3; 2.0]
Язык : Russian
Аудио #2
Идентификатор : 3
Формат : AC-3
Формат/Информация : Audio Coding 3
Mode extension : CM (complete main)
Режим смешивания : Header stripping
Идентификатор кодека : A_AC3
Продолжительность : 43 м.
Вид битрейта : Постоянный
Битрейт : 256 Кбит/сек
Канал(ы) : 2 канала(ов)
Расположение каналов : Front: L R
Частота : 48,0 КГц
Bit depth : 16 бит
Задержка видео : -80 мс.
Размер потока : 79,5 МиБ (3%)
Заголовок : Комментарии Р.В. Гудвина [RoxMarty+Визгунов]
Язык : Russian
Аудио #3
Идентификатор : 4
Формат : AC-3
Формат/Информация : Audio Coding 3
Mode extension : CM (complete main)
Режим смешивания : Header stripping
Идентификатор кодека : A_AC3
Продолжительность : 43 м.
Вид битрейта : Постоянный
Битрейт : 192 Кбит/сек
Канал(ы) : 2 канала(ов)
Расположение каналов : Front: L R
Частота : 48,0 КГц
Bit depth : 16 бит
Задержка видео : -80 мс.
Размер потока : 59,7 МиБ (3%)
Заголовок : ЖИВОВ [AC3; 2.0]
Язык : Russian
Аудио #4
Идентификатор : 5
Формат : AC-3
Формат/Информация : Audio Coding 3
Mode extension : CM (complete main)
Режим смешивания : Header stripping
Идентификатор кодека : A_AC3
Продолжительность : 43 м.
Вид битрейта : Постоянный
Битрейт : 192 Кбит/сек
Канал(ы) : 2 канала(ов)
Расположение каналов : Front: L R
Частота : 48,0 КГц
Bit depth : 16 бит
Задержка видео : -80 мс.
Размер потока : 59,7 МиБ (3%)
Заголовок : TYCOON [AC3; 2.0]
Язык : Russian
Аудио #5
Идентификатор : 6
Формат : MPEG Audio
Версия формата : Version 1
Профайл формата : Layer 3
Режим : Joint stereo
Mode extension : MS Stereo
Режим смешивания : Header stripping
Идентификатор кодека : A_MPEG/L3
Идентификатор кодека/Подсказка : MP3
Продолжительность : 43 м.
Вид битрейта : Постоянный
Битрейт : 128 Кбит/сек
Канал(ы) : 2 канала(ов)
Частота : 48,0 КГц
Задержка видео : -80 мс.
Размер потока : 39,8 МиБ (2%)
Заголовок : ОРТ
Язык : Russian
Аудио #6
Идентификатор : 7
Формат : MPEG Audio
Версия формата : Version 1
Профайл формата : Layer 3
Режим смешивания : Header stripping
Идентификатор кодека : A_MPEG/L3
Идентификатор кодека/Подсказка : MP3
Продолжительность : 43 м.
Вид битрейта : Постоянный
Битрейт : 192 Кбит/сек
Канал(ы) : 2 канала(ов)
Частота : 48,0 КГц
Задержка видео : -80 мс.
Размер потока : 59,6 МиБ (3%)
Заголовок : РЕН-ТВ
Библиотека кодирования : LAME3.91
Настройки программы : -m s -V 4 -q 2 -lowpass 18.7 -b 192
Язык : Russian
Аудио #7
Идентификатор : 8
Формат : MPEG Audio
Версия формата : Version 1
Профайл формата : Layer 3
Режим : Joint stereo
Mode extension : MS Stereo
Режим смешивания : Header stripping
Идентификатор кодека : A_MPEG/L3
Идентификатор кодека/Подсказка : MP3
Продолжительность : 43 м.
Вид битрейта : Постоянный
Битрейт : 128 Кбит/сек
Канал(ы) : 2 канала(ов)
Частота : 48,0 КГц
Задержка видео : -80 мс.
Размер потока : 39,8 МиБ (2%)
Заголовок : UKR
Язык : Ukrainian
Аудио #8
Идентификатор : 9
Формат : AC-3
Формат/Информация : Audio Coding 3
Mode extension : CM (complete main)
Режим смешивания : Header stripping
Идентификатор кодека : A_AC3
Продолжительность : 43 м.
Вид битрейта : Постоянный
Битрейт : 192 Кбит/сек
Канал(ы) : 2 канала(ов)
Расположение каналов : Front: L R
Частота : 48,0 КГц
Bit depth : 16 бит
Задержка видео : -80 мс.
Размер потока : 59,7 МиБ (3%)
Заголовок : ENGLISH [AC3; 2.0]
Аудио #9
Идентификатор : 10
Формат : AC-3
Формат/Информация : Audio Coding 3
Mode extension : CM (complete main)
Режим смешивания : Header stripping
Идентификатор кодека : A_AC3
Продолжительность : 43 м.
Вид битрейта : Постоянный
Битрейт : 192 Кбит/сек
Канал(ы) : 2 канала(ов)
Расположение каналов : Front: L R
Частота : 48,0 КГц
Bit depth : 16 бит
Задержка видео : -80 мс.
Размер потока : 59,7 МиБ (3%)
Заголовок : Commentary By R.W. Goodwin
Аудио #10
Идентификатор : 11
Формат : AC-3
Формат/Информация : Audio Coding 3
Профайл формата : Dolby Digital
Mode extension : CM (complete main)
Режим смешивания : Header stripping
Идентификатор кодека : A_AC3
Продолжительность : 43 м.
Вид битрейта : Постоянный
Битрейт : 192 Кбит/сек
Канал(ы) : 2 канала(ов)
Расположение каналов : Front: L R
Частота : 48,0 КГц
Bit depth : 16 бит
Задержка видео : -80 мс.
Размер потока : 59,7 МиБ (3%)
Заголовок : FRENCH [AC3; 2.0]
Язык : French
Аудио #11
Идентификатор : 12
Формат : AC-3
Формат/Информация : Audio Coding 3
Mode extension : CM (complete main)
Режим смешивания : Header stripping
Идентификатор кодека : A_AC3
Продолжительность : 43 м.
Вид битрейта : Постоянный
Битрейт : 192 Кбит/сек
Канал(ы) : 2 канала(ов)
Расположение каналов : Front: L R
Частота : 48,0 КГц
Bit depth : 16 бит
Задержка видео : -80 мс.
Размер потока : 59,7 МиБ (3%)
Заголовок : ITALIAN [AC3; 2.0]
Язык : Italian
Текст #1
Идентификатор : 13
Формат : VobSub
Режим смешивания : zlib
Идентификатор кодека : S_VOBSUB
Идентификатор кодека/Информация : The same subtitle format used on DVDs
Заголовок : TYCOON
Язык : Russian
Текст #2
Идентификатор : 14
Формат : VobSub
Режим смешивания : zlib
Идентификатор кодека : S_VOBSUB
Идентификатор кодека/Информация : The same subtitle format used on DVDs
Текст #3
Идентификатор : 15
Формат : VobSub
Режим смешивания : zlib
Идентификатор кодека : S_VOBSUB
Идентификатор кодека/Информация : The same subtitle format used on DVDs
Язык : French
Текст #4
Идентификатор : 16
Формат : VobSub
Режим смешивания : zlib
Идентификатор кодека : S_VOBSUB
Идентификатор кодека/Информация : The same subtitle format used on DVDs
Язык : Italian
Текст #5
Идентификатор : 17
Формат : VobSub
Режим смешивания : zlib
Идентификатор кодека : S_VOBSUB
Идентификатор кодека/Информация : The same subtitle format used on DVDs
Язык : Dutch
Текст #6
Идентификатор : 18
Формат : VobSub
Режим смешивания : zlib
Идентификатор кодека : S_VOBSUB
Идентификатор кодека/Информация : The same subtitle format used on DVDs
Язык : Greek
Меню
00:00:00.000 : en:Chapter 01
00:03:04.920 : en:Chapter 02
00:03:49.400 : en:Chapter 03
00:09:00.840 : en:Chapter 04
00:10:52.200 : en:Chapter 05
00:13:25.040 : en:Chapter 06
00:15:57.360 : en:Chapter 07
00:20:23.360 : en:Chapter 08
00:23:16.600 : en:Chapter 09
00:28:56.960 : en:Chapter 10
00:30:47.000 : en:Chapter 11
00:32:50.920 : en:Chapter 12
00:34:46.720 : en:Chapter 13
00:38:57.440 : en:Chapter 14
00:42:54.000 : en:Chapter 15

3 Сезон |24 эпизодa|

-Секретные материалы |3 Сезон|- Год выпуска: 1995
Продолжительность серии: ~00:44
Режиссер: Крис Картер/Chris Carter
Описание: 3 сезон сериала Секретные Материалы состоит из 24-х эпизодов. Благодаря помощи индейцев племени Наваха специальный агент Фокс Малдер возвращается к жизни. Теперь ему предстоит не только защитить Дану Скалли, но и все итоги их расследований фактов испытаний инфекций неизвестного происхождения, которые проводили на людях, а так же экспериментов с клонированием людей по инопланетным технологиям, которые были организованы тайным синдикатом внутри правительства.
3x01 - The Blessing Way (Благословенный путь)
3x02 - Paper Clip (Скрепка)
3x03 - D.P.O. (Д.П.О.)
3x04 - Clyde Bruckman’S Final Repose (Последний отдых Клайда Брукмана)
3x05 - The List (Список)
3x06 - 2Shy (Скромный)
3x07 - The Walk (Прогулка)
3x08- Oubliette (Темница
3x09 - Nisei (Нисэй)
3x10 - 731 (731)
3x11 - Revelations (Откровения)
3x12 - War Of The Coprophages (Война копрофагов)
3x13 - Syzygy (Парад планет)
3x14 - Grotesque (Гротеск)
3x15 - Piper Maru (Пайпер Мару)
3x16 - Apocrypha (Апокриф)
3x17 - Pusher (Толкач)
3x18 - Teso dos Bichos (Обитель духов)
3x19 - Hell Money (Адские деньги)
3x20 - Jose Chung’S 'From Outer Space («Из открытого космоса» Джо Чанга)
3x21 - Avatar (Воплощение)
3x22 - Quagmire (Трясина)
3x23 - Wetwired (Сырой монтаж)
3x24 - Talitha, Cumi (Девочка, встань)
Видеокодек: MPEG-2
Формат: MKV
Качество видео: DVD-Remux
Битрейт видео: ~4787
Размер кадра: 720x480 (720х540)
Аудио 1: Russian AC3 2.0, 256 Кбит/с - ВИЗГУНОВ
Аудио 2: Russian AC3 2.0, 256 Кбит/с - Комментарии
Аудио 3: Russian AC3 2.0, 192 Кбит/с - ЖИВОВ
Аудио 4: Russian AC3 2.0, 256 Кбит/с - ОРТ
Аудио 5: Russian MP3 2.0, 128 Кбит/с - REN-TV
Аудио 6: Ukrainian MP3 2.0, 128 Кбит/с - 1+1
Аудио 7: English AC3 5.1, 192 Кбит/с - Оригинал
Аудио 8: English AC3 2.0, 192 Кбит/с - Kомментарии
Скриншоты:

Формат : Matroska
Размер файла : 2,04 Гбайт
Продолжительность : 44 м.
Общий поток : 6507 Кбит/сек
Видео
Идентификатор : 1
Формат : MPEG Video
Версия формата : Version 2
Профиль формата : [email protected]
Параметр BVOP формата : Да
Параметр матрицы формата : По умолчанию
Идентификатор кодека : V_MPEG2
Идентификатор кодека/Информация: MPEG 1 or 2 Video
Продолжительность : 44 м.
Вид битрейта : Переменный
Битрейт : 4787 Кбит/сек
Номинальный битрейт : 9800 Кбит/сек
Ширина : 720 пикс.
Высота : 480 пикс.
Соотношение сторон : 4:3
Частота кадров : 59,940 кадр/сек
Частота кадров в оригинале : 23,976 кадр/сек
Стандарт вещания : Component
Цветовое пространство : YUV
Подвыборка цветности : 4:2:0
Битовая глубина : 8 бит
Тип развёртки : Прогрессивная
Порядок развёртки : 2:3 Pulldown
Метод сжатия : С потерями
Бит/(Пиксели*Кадры) : 0.231
Размер потока : 1,50 Гбайт (74%)
Аудио #1
Идентификатор : 2
Формат : AC-3
Формат/Информация : Audio Coding 3
Расширение режима : CM (complete main)
Идентификатор кодека : A_AC3
Продолжительность : 44 м.
Вид битрейта : Постоянный
Битрейт : 256 Кбит/сек
Каналы : 2 канала
Расположение каналов : Front: L R
Частота : 48,0 КГц
Битовая глубина : 16 бит
Метод сжатия : С потерями
Задержка видео : 14 мс.
Размер потока : 82,1 Мбайт (4%)
Заголовок : Визгунов
Язык : Russian
Аудио #2
Идентификатор : 3
Формат : AC-3
Формат/Информация : Audio Coding 3
Расширение режима : CM (complete main)
Идентификатор кодека : A_AC3
Продолжительность : 44 м.
Вид битрейта : Постоянный
Битрейт : 256 Кбит/сек
Каналы : 2 канала
Расположение каналов : Front: L R
Частота : 48,0 КГц
Битовая глубина : 16 бит
Метод сжатия : С потерями
Размер потока : 82,1 Мбайт (4%)
Заголовок : RoxMarty [комментарии режиссёра Роба Боумэна, сценариста Дэрина Моргана]
Язык : Russian
Аудио #3
Идентификатор : 4
Формат : AC-3
Формат/Информация : Audio Coding 3
Расширение режима : CM (complete main)
Идентификатор кодека : A_AC3
Продолжительность : 44 м.
Вид битрейта : Постоянный
Битрейт : 192 Кбит/сек
Каналы : 2 канала
Расположение каналов : Front: L R
Частота : 48,0 КГц
Битовая глубина : 16 бит
Метод сжатия : С потерями
Размер потока : 61,6 Мбайт (3%)
Заголовок : Живов
Язык : Russian
Аудио #4
Идентификатор : 5
Формат : AC-3
Формат/Информация : Audio Coding 3
Расширение режима : CM (complete main)
Идентификатор кодека : A_AC3
Продолжительность : 44 м.
Вид битрейта : Постоянный
Битрейт : 256 Кбит/сек
Каналы : 2 канала
Расположение каналов : Front: L R
Частота : 44,1 КГц
Битовая глубина : 16 бит
Метод сжатия : С потерями
Размер потока : 82,1 Мбайт (4%)
Заголовок : ОРТ
Язык : Russian
Аудио #5
Идентификатор : 6
Формат : MPEG Audio
Версия формата : Version 1
Профиль формата : Layer 3
Режим : Joint stereo
Расширение режима : MS Stereo
Идентификатор кодека : A_MPEG/L3
Идентификатор кодека/Подсказка : MP3
Продолжительность : 44 м.
Вид битрейта : Переменный
Битрейт : 118 Кбит/сек
Номинальный битрейт : 128 Кбит/сек
Каналы : 2 канала
Частота : 48,0 КГц
Метод сжатия : С потерями
Размер потока : 37,8 Мбайт (2%)
Заголовок : РЕН-ТВ
Библиотека кодирования : LAME3.98r
Настройки программы : -m j -V 4 -q 3 -lowpass 17 --abr 128
Язык : Russian
Аудио #6
Идентификатор : 7
Формат : MPEG Audio
Версия формата : Version 1
Профиль формата : Layer 3
Режим : Joint stereo
Расширение режима : MS Stereo
Идентификатор кодека : A_MPEG/L3
Идентификатор кодека/Подсказка : MP3
Продолжительность : 44 м.
Вид битрейта : Постоянный
Битрейт : 128 Кбит/сек
Каналы : 2 канала
Частота : 48,0 КГц
Метод сжатия : С потерями
Размер потока : 41,1 Мбайт (2%)
Заголовок : 1+1
Язык : Ukrainian
Аудио #7
Идентификатор : 8
Формат : AC-3
Формат/Информация : Audio Coding 3
Профиль формата : Dolby Digital
Расширение режима : CM (complete main)
Идентификатор кодека : A_AC3
Продолжительность : 44 м.
Вид битрейта : Постоянный
Битрейт : 192 Кбит/сек
Каналы : 2 канала
Расположение каналов : Front: L R
Частота : 48,0 КГц
Битовая глубина : 16 бит
Метод сжатия : С потерями
Задержка видео : 14 мс.
Размер потока : 61,6 Мбайт (3%)
Заголовок : English
Язык : English
Аудио #8
Идентификатор : 9
Формат : AC-3
Формат/Информация : Audio Coding 3
Профиль формата : Dolby Digital
Расширение режима : CM (complete main)
Идентификатор кодека : A_AC3
Продолжительность : 44 м.
Вид битрейта : Постоянный
Битрейт : 192 Кбит/сек
Каналы : 2 канала
Расположение каналов : Front: L R
Частота : 48,0 КГц
Битовая глубина : 16 бит
Метод сжатия : С потерями
Размер потока : 61,6 Мбайт (3%)
Заголовок : Commentary by director Rob Bowman and writer Darin Morgan
Язык : English
Текст #1
Идентификатор : 10
Формат : UTF-8
Идентификатор кодека : S_TEXT/UTF8
Идентификатор кодека/Информация: UTF-8 Plain Text
Заголовок : Купряков
Язык : Russian
Текст #2
Идентификатор : 11
Формат : UTF-8
Идентификатор кодека : S_TEXT/UTF8
Идентификатор кодека/Информация: UTF-8 Plain Text
Заголовок : Samphire [комментарии]
Язык : Russian
Текст #3
Идентификатор : 12
Формат : UTF-8
Идентификатор кодека : S_TEXT/UTF8
Идентификатор кодека/Информация: UTF-8 Plain Text
Заголовок : English
Язык : English
Текст #4
Идентификатор : 13
Формат : UTF-8
Идентификатор кодека : S_TEXT/UTF8
Идентификатор кодека/Информация: UTF-8 Plain Text
Заголовок : English [Commentary]
Язык : English
Текст #5
Идентификатор : 14
Формат : VobSub
Режим смешивания : zlib
Идентификатор кодека : S_VOBSUB
Идентификатор кодека/Информация: The same subtitle format used on DVDs
Язык : English
Текст #6
Идентификатор : 15
Формат : VobSub
Режим смешивания : zlib
Идентификатор кодека : S_VOBSUB
Идентификатор кодека/Информация: The same subtitle format used on DVDs
Язык : Spanish
Текст #7
Идентификатор : 16
Формат : VobSub
Режим смешивания : zlib
Идентификатор кодека : S_VOBSUB
Идентификатор кодека/Информация: The same subtitle format used on DVDs
Язык : French

4 Сезон |24 эпизодa|

-Секретные материалы |4 Сезон|- Год выпуска: 1996
Продолжительность серии: ~00:44
Режиссер: Крис Картер/Chris Carter
Описание: 4 сезон Секретных материалов состоит из 24 эпизодов. Спецагенты Фокс Малдер и Дана Скалли продолжают свое расследование фактов поведения испытаний инопланетного «черного масла» на людях, которые были организованы тайным синдикатом из правительства. В это время в организме Скалли начинает стремительно развиваться раковая опухоль, которая становится последствием тех экспериментов, которым она подверглась во время похищения. Стремясь доказать существование внеземной жизни Фокс Малдер практически доходит до самоубийства.
4x01 - Herrenvolk (Раса господ)
4x02 - Unruhe (Беспокойство)
4x03 - Home (Дом)
4x04 - Teliko (Телико)
4x05 - The Field Where I Died (Поле, где я умер)
4x06 - Sanguinarium (Кровожадный)
4x07 - Musings of a Cigarette Smoking Man (Мечты курильщика)
4x08 - Paper Hearts (Бумажные сердечки)
4x09 - Tunguska (Тунгуска)
4x10 - Terma (Терма)
4x11 - El Mundo gira (Мир вращается)
4x12 - Kaddish (Каддиш)
4x13 - Never Again (Больше никогда)
4x14 - Leonard Betts (Леонард Беттс)
4x15 - Memento Mori (Помни о смерти)
4x16 - Unrequited (Неотмщенный)
4x17 - Tempus Fugit (Время летит)
4x18 - Max (Макс)
4x19 - Synchrony (Синхронность)
4x20 - Small Potatoes (Мелочь пузатая)
4x21 - Zero Sum (Нулевой итог)
4x22 - Elegy (Элегия)
4x23 - Demons (Демоны)
4x24 - Gethsemane (Гефсиманский сад)
Видеокодек: MPEG-2
Формат: MKV
Качество видео: DVD-Remux
Битрейт видео: ~4979 Кбит/сек
Размер кадра: 720x480 (720х540)
Аудио 1: Russian AC3 2.0, 256 Кбит/с - ВИЗГУНОВ
Аудио 2: Russian AC3 2.0, 192 Кбит/с - ЖИВОВ
Аудио 3: Russian AC3 2.0, 256 Кбит/с - ОРТ
Аудио 4: Russian MP3 2.0, 128 Кбит/с - REN-TV
Аудио 5: English AC3 5.1, 192 Кбит/с - Оригинал
Аудио 6: Ukrainian MP3 2.0, 128 Кбит/с - 1+1
Скриншоты:

Формат : Matroska
Размер файла : 1,94 Гбайт
Продолжительность : 43 м.
Общий поток : 6309 Кбит/сек
Видео
Идентификатор : 1
Формат : MPEG Video
Версия формата : Version 2
Профиль формата : [email protected]
Параметр BVOP формата : Да
Параметр матрицы формата : По умолчанию
Идентификатор кодека : V_MPEG2
Идентификатор кодека/Информация: MPEG 1 or 2 Video
Продолжительность : 43 м.
Вид битрейта : Переменный
Битрейт : 4979 Кбит/сек
Номинальный битрейт : 9800 Кбит/сек
Ширина : 720 пикс.
Высота : 480 пикс.
Соотношение сторон : 4:3
Частота кадров : 59,940 кадр/сек
Частота кадров в оригинале : 23,976 кадр/сек
Стандарт вещания : Component
Цветовое пространство : YUV
Подвыборка цветности : 4:2:0
Битовая глубина : 8 бит
Тип развёртки : Прогрессивная
Порядок развёртки : 2:3 Pulldown
Метод сжатия : С потерями
Бит/(Пиксели*Кадры) : 0.240
Размер потока : 1,53 Гбайт (79%)
Аудио #1
Идентификатор : 2
Формат : AC-3
Формат/Информация : Audio Coding 3
Расширение режима : CM (complete main)
Идентификатор кодека : A_AC3
Продолжительность : 43 м.
Вид битрейта : Постоянный
Битрейт : 224 Кбит/сек
Каналы : 2 канала
Расположение каналов : Front: L R
Частота : 48,0 КГц
Битовая глубина : 16 бит
Метод сжатия : С потерями
Размер потока : 80,4 Мбайт (4%)
Заголовок : Визгунов
Язык : Russian
Аудио #2
Идентификатор : 3
Формат : AC-3
Формат/Информация : Audio Coding 3
Расширение режима : CM (complete main)
Идентификатор кодека : A_AC3
Продолжительность : 43 м.
Вид битрейта : Постоянный
Битрейт : 192 Кбит/сек
Каналы : 2 канала
Расположение каналов : Front: L R
Частота : 48,0 КГц
Битовая глубина : 16 бит
Метод сжатия : С потерями
Размер потока : 60,3 Мбайт (3%)
Заголовок : Живов
Язык : Russian
Аудио #3
Идентификатор : 4
Формат : AC-3
Формат/Информация : Audio Coding 3
Расширение режима : CM (complete main)
Идентификатор кодека : A_AC3
Продолжительность : 43 м.
Вид битрейта : Постоянный
Битрейт : 224 Кбит/сек
Каналы : 2 канала
Расположение каналов : Front: L R
Частота : 48,0 КГц
Битовая глубина : 16 бит
Метод сжатия : С потерями
Размер потока : 80,4 Мбайт (4%)
Заголовок : ОРТ
Язык : Russian
Аудио #4
Идентификатор : 5
Формат : MPEG Audio
Версия формата : Version 1
Профиль формата : Layer 3
Режим : Joint stereo
Расширение режима : MS Stereo
Идентификатор кодека : A_MPEG/L3
Идентификатор кодека/Подсказка : MP3
Продолжительность : 43 м.
Вид битрейта : Переменный
Битрейт : 117 Кбит/сек
Номинальный битрейт : 128 Кбит/сек
Каналы : 2 канала
Частота : 48,0 КГц
Метод сжатия : С потерями
Размер потока : 36,7 Мбайт (2%)
Заголовок : РЕН-ТВ
Библиотека кодирования : LAME3.98r
Настройки программы : -m j -V 4 -q 3 -lowpass 17 --abr 128
Язык : Russian
Аудио #5
Идентификатор : 6
Формат : AC-3
Формат/Информация : Audio Coding 3
Профиль формата : Dolby Digital
Расширение режима : CM (complete main)
Идентификатор кодека : A_AC3
Продолжительность : 43 м.
Вид битрейта : Постоянный
Битрейт : 192 Кбит/сек
Каналы : 2 канала
Расположение каналов : Front: L R
Частота : 48,0 КГц
Битовая глубина : 16 бит
Метод сжатия : С потерями
Размер потока : 60,3 Мбайт (3%)
Заголовок : English
Язык : English
Аудио #6
Идентификатор : 7
Формат : AC-3
Формат/Информация : Audio Coding 3
Расширение режима : CM (complete main)
Идентификатор кодека : A_AC3
Продолжительность : 43 м.
Вид битрейта : Постоянный
Битрейт : 192 Кбит/сек
Каналы : 2 канала
Расположение каналов : Front: L R
Частота : 48,0 КГц
Битовая глубина : 16 бит
Метод сжатия : С потерями
Размер потока : 60,3 Мбайт (3%)
Заголовок : 1+1
Язык : Ukrainian
Текст #1
Идентификатор : 8
Формат : UTF-8
Идентификатор кодека : S_TEXT/UTF8
Идентификатор кодека/Информация: UTF-8 Plain Text
Заголовок : Trof
Язык : Russian
Текст #2
Идентификатор : 9
Формат : VobSub
Режим смешивания : zlib
Идентификатор кодека : S_VOBSUB
Идентификатор кодека/Информация: The same subtitle format used on DVDs
Язык : English
Текст #3
Идентификатор : 10
Формат : VobSub
Режим смешивания : zlib
Идентификатор кодека : S_VOBSUB
Идентификатор кодека/Информация: The same subtitle format used on DVDs
Язык : Spanish
Текст #4
Идентификатор : 11
Формат : VobSub
Режим смешивания : zlib
Идентификатор кодека : S_VOBSUB
Идентификатор кодека/Информация: The same subtitle format used on DVDs
Язык : French

5 Сезон |20 эпизодa|

-Секретные материалы |5 Сезон|- Год выпуска: 1997
Продолжительность серии: ~00:44
Режиссер: Крис Картер/Chris Carter
Описание: В 5 сезоне 20 эпизодов. Cпецагенту Дане Скалли приходится укрывать от преследований спецслужб Фокса Малдера. В это время ей становится известно, что стало причиной появления и прогрессирования у нее раковой опухоли. Малдер старается найди для своей напарницы лекарство. Очередным последствием похищения Скалли становится появление девочки Эмили, которая согласно медицинским картам, не кто иная, как её дочь. В это время специальные агенты Малдер и Скалли оказываются на волосок от раскрытия деятельности тайного синдиката внутри правительства, который занят подготовкой нашей планеты к захвату инопланетянами.
5x01 - Redux (Возвращение)
5x02 - Redux II (Возвращение II)
5x03 - Unusual Suspects (Необычные подозреваемые)
5x04 - Detour (Окольный путь)
5x05 - Post-Modern Prometheus (Постмодернистский Прометей)
5x06 - Christmas Carol (Рождественский гимн)
5x07 - Emily (Эмили)
5x08 - Kitsunegari (Охота на лис)
5x09 - Schizogeny (Гены шизофреника)
5x10 - Chinga (Чинга)
5x11 - Kill Switch (Код для уничтожения)
5x12 - Bad Blood (Плохая кровь)
5x13 - Patient «X» (Пациент «Икс)
5x14 - The Red and the Black (Красное и чёрное)
5x15 - Travelers (Странники)
5x16 - Mind’S Eye (Око разума)
5x17 - All Souls (Все души)
5x18 - The Pine Bluff Variant (Вариант «Блеф)
5x19 - Folie a Deux (Обоюдное сумасшествие)
5x20 - The End (Конец)
Видеокодек: MPEG-2
Формат: MKV
Качество видео: DVD-Remux
Битрейт видео: ~4 786 Kbps
Размер кадра: 720x480 (853х480)
Аудио 1: Russian AC3 2.0, 256 Кбит/с - ВИЗГУНОВ
Аудио 2: Russian AC3 2.0, 192 Кбит/с - ЖИВОВ
Аудио 3: Russian AC3 2.0, 256 Кбит/с - ОРТ
Аудио 4: Russian AC3 2.0, 256 Кбит/с - Премьер-видео
Аудио 5: Russian MP3 2.0, 128 Кбит/с - REN-TV
Аудио 6: English AC3 5.1, 192 Кбит/с - Оригинал
Аудио 7: Ukrainian MP3 2.0, 192 Кбит/с - 2+2
Скриншоты:

General
Format : Matroska
File size : 2.14 GiB
Duration : 46mn 5s
Overall bit rate : 6 635 Kbps
Video
ID : 1
Format : MPEG Video
Format version : Version 2
Format profile : [email protected]
Format settings, BVOP : Yes
Format settings, Matrix : Default
Codec ID : V_MPEG2
Codec ID/Info : MPEG 1 or 2 Video
Duration : 46mn 3s
Bit rate mode : Variable
Bit rate : 4 786 Kbps
Nominal bit rate : 9 800 Kbps
Width : 720 pixels
Height : 480 pixels
Display aspect ratio : 16:9
Original display aspect ratio : 16:9
Frame rate : 59.940 fps
Original frame rate : 23.976 fps
Standard : Component
Resolution : 8 bits
Colorimetry : 4:2:0
Scan type : Progressive
Scan order : 2:3 Pulldown
Bits/(Pixel*Frame) : 0.231
Stream size : 1.54 GiB (72%)
Title : R1
Audio #1
ID : 2
Format : AC-3
Format/Info : Audio Coding 3
Codec ID : A_AC3
Duration : 46mn 5s
Bit rate mode : Constant
Bit rate : 256 Kbps
Channel(s) : 2 channels
Channel positions : L R
Sampling rate : 48.0 KHz
Stream size : 84.4 MiB (4%)
Title : Визгунов
Language : Russian
Audio #2
ID : 3
Format : AC-3
Format/Info : Audio Coding 3
Codec ID : A_AC3
Duration : 46mn 5s
Bit rate mode : Constant
Bit rate : 192 Kbps
Channel(s) : 2 channels
Channel positions : L R
Sampling rate : 48.0 KHz
Stream size : 63.3 MiB (3%)
Title : Живов
Language : Russian
Audio #3
ID : 4
Format : AC-3
Format/Info : Audio Coding 3
Codec ID : A_AC3
Duration : 46mn 5s
Bit rate mode : Constant
Bit rate : 256 Kbps
Channel(s) : 2 channels
Channel positions : L R
Sampling rate : 48.0 KHz
Stream size : 84.4 MiB (4%)
Title : ОРТ
Language : Russian
Audio #4
ID : 5
Format : AC-3
Format/Info : Audio Coding 3
Codec ID : A_AC3
Duration : 46mn 5s
Bit rate mode : Constant
Bit rate : 256 Kbps
Channel(s) : 2 channels
Channel positions : L R
Sampling rate : 48.0 KHz
Stream size : 84.4 MiB (4%)
Title : Премьер-видео
Language : Russian
Audio #5
ID : 6
Format : MPEG Audio
Format version : Version 1
Format profile : Layer 3
Format_Settings_Mode : Joint stereo
Format_Settings_ModeExtension : MS Stereo
Codec ID : A_MPEG/L3
Codec ID/Hint : MP3
Duration : 46mn 5s
Bit rate mode : Variable
Bit rate : 116 Kbps
Nominal bit rate : 128 Kbps
Channel(s) : 2 channels
Sampling rate : 48.0 KHz
Stream size : 38.4 MiB (2%)
Title : РЕН-ТВ
Writing library : LAME3.98r
Encoding settings : -m j -V 4 -q 3 -lowpass 17 --abr 128
Language : Russian
Audio #6
ID : 7
Format : AC-3
Format/Info : Audio Coding 3
Format profile : Dolby Digital
Codec ID : A_AC3
Duration : 46mn 5s
Bit rate mode : Constant
Bit rate : 192 Kbps
Channel(s) : 2 channels
Channel positions : L R
Sampling rate : 48.0 KHz
Stream size : 63.3 MiB (3%)
Title : English
Audio #7
ID : 8
Format : AC-3
Format/Info : Audio Coding 3
Codec ID : A_AC3
Duration : 46mn 5s
Bit rate mode : Constant
Bit rate : 192 Kbps
Channel(s) : 2 channels
Channel positions : L R
Sampling rate : 48.0 KHz
Stream size : 63.3 MiB (3%)
Title : Кино / 2+2
Language : Ukrainian
Audio #8
ID : 9
Format : AC-3
Format/Info : Audio Coding 3
Codec ID : A_AC3
Duration : 46mn 5s
Bit rate mode : Constant
Bit rate : 256 Kbps
Channel(s) : 2 channels
Channel positions : L R
Sampling rate : 48.0 KHz
Stream size : 84.4 MiB (4%)
Title : СТБ
Language : Ukrainian
Text #1
ID : 10
Format : UTF-8
Codec ID : S_TEXT/UTF8
Codec ID/Info : UTF-8 Plain Text
Title : @llex
Language : Russian
Text #2
ID : 11
Format : UTF-8
Codec ID : S_TEXT/UTF8
Codec ID/Info : UTF-8 Plain Text
Title : English [SRT]
Text #3
ID : 12
Format : VobSub
Codec ID : S_VOBSUB
Codec ID/Info : The same subtitle format used on DVDs
Title : English
Text #4
ID : 13
Format : VobSub
Codec ID : S_VOBSUB
Codec ID/Info : The same subtitle format used on DVDs
Title : Spanish
Language : Spanish
Text #5
ID : 14
Format : VobSub
Codec ID : S_VOBSUB
Codec ID/Info : The same subtitle format used on DVDs
Title : French
Language : French
Text #6
ID : 15
Format : VobSub
Codec ID : S_VOBSUB
Codec ID/Info : The same subtitle format used on DVDs
Title : English
Text #7
ID : 16
Format : VobSub
Codec ID : S_VOBSUB
Codec ID/Info : The same subtitle format used on DVDs
Title : Spanish
Language : Spanish
Text #8
ID : 17
Format : VobSub
Codec ID : S_VOBSUB
Codec ID/Info : The same subtitle format used on DVDs
Title : French
Language : French
Text #9
ID : 18
Format : UTF-8
Codec ID : S_TEXT/UTF8
Codec ID/Info : UTF-8 Plain Text
Title : subs.cc.utf16be

|Борьба за будущее|

-Секретные материалы / The X-Files «Борьба за будущее» / Fight the Future (1998) [1080p] BDRemux- Год выпуска: 1998
Страна: США
Производство: 20th Century Fox
Жанр: Фантастика
Продолжительность серии: ~02:02:41
Режиссер: Роб Боумэн / Rob Bowman
Актеры: Дэвид Духовны, Джиллиан Андерсон, Митч Пилегги, Уильям Б. Дэвис, Том Брэйдвуд, Дин Хаглунд, Брюс Харвуд
Переводы: 4x Авторский |одноголосный Сергей Визгунов, Юрий Живов, Гаврилов, Антонов| + 2x Профессиональный |многоголосный закадровий ОРТ (четырёхголосный), Рен-ТВ (двухголосный)| + 2x Профессиональный |дублированный| "Лазер-видео", дубляж BD + Украинский 1+1 (двухголосный)| + Оригинал |английский|
Субтитры: Русские, английские
Формат субтитров: prerendered (Blu-ray/PGS/SUP)


Рейтинг PG-13 - Детям до 13 лет просмотр не желателен
Описание: «Секретные материалы: Борьба за будущее» (The X Files: Fight the Future) — первый полнометражный кинофильм, снятый на основе известного телевизионного сериала «Секретные материалы». По сюжетной линии находится точно между пятым и шестым сезонами сериала. Учитывая, что фильм изначально был рассчитан дабы угодить и поклонникам сериала и совершенно новым зрителям (не смотревшим сериал), просмотр данного кинофильма ни в коей мере не запутает новичков, не знакомых с мифологией сюжета сериала, а поклонникам даст ответы на многие вопросы, а также существенно расширит и обогатит общую мифологию.
Видеокодек: MPEG-4 AVC Video
Формат: MKV
Качество видео: BDRemux
Битрейт видео: ~24900 kbps
Размер кадра: 1920x1080p
Аудио 01: Русский | DTS-HD Lossless Master Audio | 5.1 Surround | 24bit | 48kHz | ~4228kb/s | core: DTS 5.1, 48 kHz, 1536 kbps - Визгунов
Аудио 02: Русский | DTS-HD Lossless Master Audio | 5.1 Surround | 24bit | 48kHz | ~4201kb/s | core: DTS 5.1, 48 kHz, 1536 kbps - Гаврилов
Аудио 03: Русский | DTS-HD Lossless Master Audio | 5.1 Surround | 24bit | 48kHz | ~4208kb/s | core: DTS 5.1, 48 kHz, 1536 kbps - Живов
Аудио 04: Русский | AC3 | 2.0 | 16bit | 48kHz | 256kb/s - Антонов
Аудио 05: Русский | AC3 | 2.0 | 16bit | 48kHz | 192kb/s - ОРТ
Аудио 06: Русский | AC3 | 5.1 | 16bit | 48kHz | 384kb/s - РЕН-ТВ
Аудио 07: Русский | AC3 | 5.1 | 16bit | 48kHz | 448kb/s - Дубляж |Лазер-видео|'98
Аудио 08: Русский | DTS | 5.1 Surround | 24bit | 48kHz | ~768kb/s - Дубляж BD
Аудио 09: Русский | AC3 | 5.1 | 16bit | 48kHz | 448kb/s - Двухголоска |неизвестная|
Аудио 10: Русский | DTS | 5.1 | 16bit | 48kHz | 1510kb/s - Многоголоска R5
Аудио 11: Русский | AC3 | 2.0 | 16bit | 48kHz | 256kb/s - комментарии №1
Аудио 12: Русский | AC3 | 2.0 | 16bit | 48kHz | 256kb/s - комментарии №2
Аудио 13: English | DTS-HD Lossless Master Audio | 5.1 Surround | 24bit | 48kHz | ~4188kb/s | core: DTS 5.1, 48 kHz, 1536 kbps - Оригинал
Аудио 14: English | AC3 | 2.0 | 16bit | 48kHz | 224kb/s - комментарии №1
Аудио 15: English | AC3 | 2.0 | 16bit | 48kHz | 224kb/s - комментарии №2
Аудио 16: Украинская | AC3 | 5.1 | 16bit | 48kHz | 384kb/s - 1+1
Скриншоты:

General
Format : Matroska
File size : 36.4 GiB
Duration : 2h 2mn
Overall bit rate : 42.5 Mbps
Video
ID : 1
Format : AVC
Format/Info : Advanced Video Codec
Format profile : [email protected]
Format settings, CABAC : Yes
Format settings, ReFrames : 3 frames
Muxing mode : Container [email protected]
Codec ID : V_MPEG4/ISO/AVC
Duration : 2h 2mn
Width : 1 920 pixels
Height : 1 080 pixels
Display aspect ratio : 16:9
Frame rate : 23.976 fps
Resolution : 8 bits
Colorimetry : 4:2:0
Scan type : Progressive
Audio #1
ID : 2
Format : DTS
Format/Info : Digital Theater Systems
Format profile : MA
Codec ID : A_DTS
Duration : 2h 2mn
Bit rate mode : Variable
Channel(s) : 6 channels
Channel positions : Front: L C R, Surround: L R, LFE
Sampling rate : 48.0 KHz
Resolution : 24 bits
Title : Визгунов
Language : Russian
Audio #2
ID : 3
Format : DTS
Format/Info : Digital Theater Systems
Format profile : MA
Codec ID : A_DTS
Duration : 2h 2mn
Bit rate mode : Variable
Channel(s) : 6 channels
Channel positions : Front: L C R, Surround: L R, LFE
Sampling rate : 48.0 KHz
Resolution : 24 bits
Title : Гаврилов
Language : Russian
Audio #3
ID : 4
Format : DTS
Format/Info : Digital Theater Systems
Format profile : MA
Codec ID : A_DTS
Duration : 2h 2mn
Bit rate mode : Variable
Channel(s) : 6 channels
Channel positions : Front: L C R, Surround: L R, LFE
Sampling rate : 48.0 KHz
Resolution : 24 bits
Title : Живов
Language : Russian
Audio #4
ID : 5
Format : AC-3
Format/Info : Audio Coding 3
Codec ID : A_AC3
Duration : 2h 2mn
Bit rate mode : Constant
Bit rate : 256 Kbps
Channel(s) : 2 channels
Channel positions : L R
Sampling rate : 48.0 KHz
Stream size : 225 MiB (1%)
Title : Антонов [пропуск: 01:23:15-01:24:11]
Language : Russian
Audio #5
ID : 6
Format : AC-3
Format/Info : Audio Coding 3
Codec ID : A_AC3
Duration : 2h 2mn
Bit rate mode : Constant
Bit rate : 192 Kbps
Channel(s) : 2 channels
Channel positions : L R
Sampling rate : 48.0 KHz
Video delay : 1s 400ms
Stream size : 168 MiB (0%)
Title : ОРТ
Language : Russian
Audio #6
ID : 7
Format : AC-3
Format/Info : Audio Coding 3
Codec ID : A_AC3
Duration : 2h 2mn
Bit rate mode : Constant
Bit rate : 448 Kbps
Channel(s) : 6 channels
Channel positions : Front: L C R, Surround: L R, LFE
Sampling rate : 48.0 KHz
Video delay : 1s 400ms
Stream size : 393 MiB (1%)
Title : РЕН-ТВ
Language : Russian
Audio #7
ID : 8
Format : AC-3
Format/Info : Audio Coding 3
Codec ID : A_AC3
Duration : 2h 2mn
Bit rate mode : Constant
Bit rate : 448 Kbps
Channel(s) : 6 channels
Channel positions : Front: L C R, Surround: L R, LFE
Sampling rate : 48.0 KHz
Stream size : 393 MiB (1%)
Title : Дубляж [1998] + MVO
Language : Russian
Audio #8
ID : 9
Format : DTS
Format/Info : Digital Theater Systems
Codec ID : A_DTS
Duration : 2h 2mn
Bit rate mode : Constant
Bit rate : 755 Kbps
Channel(s) : 6 channels
Channel positions : Front: L C R, Surround: L R, LFE
Sampling rate : 48.0 KHz
Resolution : 24 bits
Stream size : 662 MiB (2%)
Title : Дубляж [2008] [BD]
Language : Russian
Audio #9
ID : 10
Format : AC-3
Format/Info : Audio Coding 3
Codec ID : A_AC3
Duration : 2h 2mn
Bit rate mode : Constant
Bit rate : 448 Kbps
Channel(s) : 6 channels
Channel positions : Front: L C R, Surround: L R, LFE
Sampling rate : 48.0 KHz
Stream size : 393 MiB (1%)
Title : Двухголоска
Language : Russian
Audio #10
ID : 11
Format : DTS
Format/Info : Digital Theater Systems
Codec ID : A_DTS
Duration : 2h 2mn
Bit rate mode : Constant
Bit rate : 1 510 Kbps
Channel(s) : 6 channels
Channel positions : Front: L C R, Surround: L R, LFE
Sampling rate : 48.0 KHz
Resolution : 24 bits
Stream size : 1.29 GiB (4%)
Title : Многоголоска [R5]
Language : Russian
Audio #11
ID : 12
Format : AC-3
Format/Info : Audio Coding 3
Codec ID : A_AC3
Duration : 2h 2mn
Bit rate mode : Constant
Bit rate : 256 Kbps
Channel(s) : 2 channels
Channel positions : L R
Sampling rate : 48.0 KHz
Stream size : 225 MiB (1%)
Title : RoxMarty [Комментарии Криса Картера и Роба Боумэна (1998)]
Language : Russian
Audio #12
ID : 13
Format : AC-3
Format/Info : Audio Coding 3
Codec ID : A_AC3
Duration : 2h 2mn
Bit rate mode : Constant
Bit rate : 256 Kbps
Channel(s) : 2 channels
Channel positions : L R
Sampling rate : 48.0 KHz
Stream size : 225 MiB (1%)
Title : RoxMarty [Комментарии Криса Картера,Роба Боумэна,Фрэнка Спотница,Дэниэла Сэкхейма (2008)]
Language : Russian
Audio #13
ID : 14
Format : DTS
Format/Info : Digital Theater Systems
Format profile : MA
Codec ID : A_DTS
Duration : 2h 2mn
Bit rate mode : Variable
Channel(s) : 6 channels
Channel positions : Front: L C R, Surround: L R, LFE
Sampling rate : 48.0 KHz
Resolution : 24 bits
Title : English [HD]
Audio #14
ID : 15
Format : AC-3
Format/Info : Audio Coding 3
Codec ID : A_AC3
Duration : 2h 2mn
Bit rate mode : Constant
Bit rate : 224 Kbps
Channel(s) : 2 channels
Channel positions : L R
Sampling rate : 48.0 KHz
Stream size : 197 MiB (1%)
Title : Commentary by Chris Carter, Rob Bowman (1998)
Audio #15
ID : 16
Format : AC-3
Format/Info : Audio Coding 3
Codec ID : A_AC3
Duration : 2h 2mn
Bit rate mode : Constant
Bit rate : 224 Kbps
Channel(s) : 2 channels
Channel positions : L R
Sampling rate : 48.0 KHz
Stream size : 197 MiB (1%)
Title : Commentary by Frank Spotnitz, Chris Carter, Rob Bowman, Daniel Sackheim (2008)
Audio #16
ID : 17
Format : AC-3
Format/Info : Audio Coding 3
Codec ID : A_AC3
Duration : 2h 2mn
Bit rate mode : Constant
Bit rate : 384 Kbps
Channel(s) : 6 channels
Channel positions : Front: L C R, Surround: L R, LFE
Sampling rate : 48.0 KHz
Stream size : 337 MiB (1%)
Title : 1+1
Language : Ukrainian
Text #1
ID : 18
Format : PGS
Codec ID : S_HDMV/PGS
Codec ID/Info : The same subtitle format used on BDs/HD-DVDs
Title : Russian (BD)
Language : Russian
Text #2
ID : 19
Format : VobSub
Codec ID : S_VOBSUB
Codec ID/Info : The same subtitle format used on DVDs
Title : Russian
Language : Russian
Text #3
ID : 20
Format : PGS
Codec ID : S_HDMV/PGS
Codec ID/Info : The same subtitle format used on BDs/HD-DVDs
Title : English (BD)
Text #4
ID : 21
Format : VobSub
Codec ID : S_VOBSUB
Codec ID/Info : The same subtitle format used on DVDs
Title : English
Text #5
ID : 22
Format : PGS
Codec ID : S_HDMV/PGS
Codec ID/Info : The same subtitle format used on BDs/HD-DVDs
Title : Комментарии Криса Картера, Роба Боумэна (1998) (BD)
Language : Russian
Text #6
ID : 23
Format : VobSub
Codec ID : S_VOBSUB
Codec ID/Info : The same subtitle format used on DVDs
Title : Комментарии Криса Картера, Роба Боумэна (1998)
Language : Russian
Text #7
ID : 24
Format : PGS
Codec ID : S_HDMV/PGS
Codec ID/Info : The same subtitle format used on BDs/HD-DVDs
Title : Комментарии Фрэнка Спотница, Криса Картера, Роба Боумэна, Дэниэла Сэкхэйма (2008) (BD)
Language : Russian
Text #8
ID : 25
Format : VobSub
Codec ID : S_VOBSUB
Codec ID/Info : The same subtitle format used on DVDs
Title : Комментарии Фрэнка Спотница, Криса Картера, Роба Боумэна, Дэниэла Сэкхэйма (2008)
Language : Russian
Text #9
ID : 26
Format : PGS
Codec ID : S_HDMV/PGS
Codec ID/Info : The same subtitle format used on BDs/HD-DVDs
Title : Storyboard (BD)
Text #10
ID : 27
Format : VobSub
Codec ID : S_VOBSUB
Codec ID/Info : The same subtitle format used on DVDs
Title : Storyboard
Menu
00:00:00.000 : en:00:00:00.000
00:05:47.556 : en:00:05:47.556
00:10:55.905 : en:00:10:55.905
00:21:41.425 : en:00:21:41.425
00:26:10.152 : en:00:26:10.152
00:32:36.538 : en:00:32:36.538
00:35:51.858 : en:00:35:51.858
00:45:10.374 : en:00:45:10.374
00:50:49.964 : en:00:50:49.964
00:54:55.417 : en:00:54:55.417
01:01:02.575 : en:01:01:02.575
01:07:28.878 : en:01:07:28.878
01:16:58.614 : en:01:16:58.614
01:18:44.094 : en:01:18:44.094
01:27:21.987 : en:01:27:21.987
01:37:13.786 : en:01:37:13.786
01:44:15.124 : en:01:44:15.124
01:48:00.391 : en:01:48:00.391

Бонусы: рус

Аудиокомментарий Криса Картера и Роба Боумэна (1998)
Аудикомментарий Криса Картера, Роба Боумэна, Фрэнка Спотница, Дэниэла Сэкхейма (2008)
Вырезанная альтернативная сцена с поцелуем Малдера и Скалли
Смешные моменты со съёмок
За кулисами фильма (1998)
За кулисами фильма (2008)+создание музыки и спецэффектов фильма
+
Трейлеры (1998/2008)
Раскадровка
Анимированный фотоколлаж (в том числе в виде отдельных картинок)

6 Сезон |22 эпизодa|

-Секретные материалы |6 Сезон|- Год выпуска: 1998
Продолжительность серии: ~00:44
Режиссер: Крис Картер/Chris Carter
Описание: Сериал Секретные Материалы 6 сезон состоит из 22-х эпизодов. Того, как в Далласе гремит взрыв принято решение вновь открыть проект Секретные Материалы. Но на этот раз без Фокса Малдера и Даны Скалли, которые не перестали расследовать загадочные дела. Несмотря на дикое давление со стороны своего начальства они оказываются в одном шаге от раскрытия всей деятельности тайного синдиката, который занят подготовкой планеты к колонизации из космоса. Но все оказывается под угрозой срыва, когда в дело неожиданно вмешиваются инопланетяне-повстанцы.
6x01 - The Beginning (Начало)
6x02 - Drive (Гонка)
6x03 - Triangle (Треугольник)
6x04 - Dreamland (Зазеркалье)
6x05 - Dreamland II (Зазеркалье II)
6x06 - How the Ghosts Stole Christmas (Как призраки похитили Рождество)
6x07 - Ghost (Язык нежности)
6x08 - Rain King (Король дождя)
6x09 - S.R. 819 (Резолюция Сената № 819)
6x10 - Tithonus (Титон)
6x11 - Two Fathers (Два отца)
6x12 - One Son (Один сын)
6x13 - Agua Mala (Плохая вода)
6x14 - Monday (Понедельник)
6x15 - Arcadia (Аркадия)
6x16 - Alpha (Альфа)
6x17 - Trevor (Тревор)
6x18 - Milagro (Чудо)
6x19 - Unnatural (Неестественный)
6x20 - Three of a Kind (Трое из вида)
6x21 - Field Trip (Полевой выезд)
6x22 - Biogenesis (Биогенез)
Видеокодек: MPEG-2
Формат: MKV
Качество видео: DVD-Remux
Битрейт видео: ~5323 Кбит/сек
Размер кадра: 720x480 (853х480)
Аудио 1: Russian AC3 2.0, 256 Кбит/с - ВИЗГУНОВ
Аудио 2: Russian AC3 2.0, 192 Кбит/с - ЖИВОВ
Аудио 3: Russian AC3 2.0, 256 Кбит/с - ОРТ
Аудио 4: Russian MP3 2.0, 128 Кбит/с - REN-TV
Аудио 5: English AC3 5.1, 192 Кбит/с - Оригинал
Аудио 6: Ukrainian AC-3 2.0, 192 Кбит/с - Кино / 2+2
Аудио 7: Ukrainian AC-3 2.0, 256 Кбит/с - СТБ
Скриншоты:

Формат : Matroska
Размер файла : 2,15 Гбайт
Продолжительность : 44 м.
Общий поток : 6925 Кбит/сек
Видео
Идентификатор : 1
Формат : MPEG Video
Версия формата : Version 2
Профиль формата : [email protected]
Параметр BVOP формата : Да
Параметр матрицы формата : По умолчанию
Идентификатор кодека : V_MPEG2
Идентификатор кодека/Информация: MPEG 1 or 2 Video
Продолжительность : 44 м.
Вид битрейта : Переменный
Битрейт : 5323 Кбит/сек
Номинальный битрейт : 9800 Кбит/сек
Ширина : 720 пикс.
Высота : 480 пикс.
Соотношение сторон : 16:9
Соотношение сторон в оригинале : 16:9
Частота кадров : 59,940 кадр/сек
Частота кадров в оригинале : 23,976 кадр/сек
Стандарт вещания : Component
Цветовое пространство : YUV
Подвыборка цветности : 4:2:0
Битовая глубина : 8 бит
Тип развёртки : Прогрессивная
Порядок развёртки : 2:3 Pulldown
Метод сжатия : С потерями
Бит/(Пиксели*Кадры) : 0.257
Размер потока : 1,65 Гбайт (77%)
Аудио #1
Идентификатор : 2
Формат : AC-3
Формат/Информация : Audio Coding 3
Расширение режима : CM (complete main)
Идентификатор кодека : A_AC3
Продолжительность : 44 м.
Вид битрейта : Постоянный
Битрейт : 256 Кбит/сек
Каналы : 2 канала
Расположение каналов : Front: L R
Частота : 48,0 КГц
Битовая глубина : 16 бит
Метод сжатия : С потерями
Размер потока : 81,4 Мбайт (4%)
Заголовок : Визгунов
Язык : Russian
Аудио #2
Идентификатор : 3
Формат : AC-3
Формат/Информация : Audio Coding 3
Расширение режима : CM (complete main)
Идентификатор кодека : A_AC3
Продолжительность : 44 м.
Вид битрейта : Постоянный
Битрейт : 192 Кбит/сек
Каналы : 2 канала
Расположение каналов : Front: L R
Частота : 48,0 КГц
Битовая глубина : 16 бит
Метод сжатия : С потерями
Размер потока : 61,1 Мбайт (3%)
Заголовок : Живов
Язык : Russian
Аудио #3
Идентификатор : 4
Формат : AC-3
Формат/Информация : Audio Coding 3
Расширение режима : CM (complete main)
Идентификатор кодека : A_AC3
Продолжительность : 44 м.
Вид битрейта : Постоянный
Битрейт : 256 Кбит/сек
Каналы : 2 канала
Расположение каналов : Front: L R
Частота : 48,0 КГц
Битовая глубина : 16 бит
Метод сжатия : С потерями
Размер потока : 81,4 Мбайт (4%)
Заголовок : ОРТ
Язык : Russian
Аудио #4
Идентификатор : 5
Формат : MPEG Audio
Версия формата : Version 1
Профиль формата : Layer 3
Режим : Joint stereo
Расширение режима : MS Stereo
Идентификатор кодека : A_MPEG/L3
Идентификатор кодека/Подсказка : MP3
Продолжительность : 44 м.
Вид битрейта : Переменный
Битрейт : 120 Кбит/сек
Номинальный битрейт : 128 Кбит/сек
Каналы : 2 канала
Частота : 48,0 КГц
Метод сжатия : С потерями
Размер потока : 38,1 Мбайт (2%)
Заголовок : РЕН-ТВ
Библиотека кодирования : LAME3.98r
Настройки программы : -m j -V 4 -q 3 -lowpass 17 --abr 128
Язык : Russian
Аудио #5
Идентификатор : 6
Формат : AC-3
Формат/Информация : Audio Coding 3
Профиль формата : Dolby Digital
Расширение режима : CM (complete main)
Идентификатор кодека : A_AC3
Продолжительность : 44 м.
Вид битрейта : Постоянный
Битрейт : 192 Кбит/сек
Каналы : 2 канала
Расположение каналов : Front: L R
Частота : 48,0 КГц
Битовая глубина : 16 бит
Метод сжатия : С потерями
Размер потока : 61,1 Мбайт (3%)
Заголовок : English
Язык : English
Аудио #6
Идентификатор : 7
Формат : AC-3
Формат/Информация : Audio Coding 3
Расширение режима : CM (complete main)
Идентификатор кодека : A_AC3
Продолжительность : 44 м.
Вид битрейта : Постоянный
Битрейт : 192 Кбит/сек
Каналы : 2 канала
Расположение каналов : Front: L R
Частота : 48,0 КГц
Битовая глубина : 16 бит
Метод сжатия : С потерями
Размер потока : 61,1 Мбайт (3%)
Заголовок : Кино / 2+2
Язык : Ukrainian
Аудио #7
Идентификатор : 8
Формат : AC-3
Формат/Информация : Audio Coding 3
Расширение режима : CM (complete main)
Идентификатор кодека : A_AC3
Продолжительность : 44 м.
Вид битрейта : Постоянный
Битрейт : 256 Кбит/сек
Каналы : 2 канала
Расположение каналов : Front: L R
Частота : 48,0 КГц
Битовая глубина : 16 бит
Метод сжатия : С потерями
Размер потока : 81,4 Мбайт (4%)
Заголовок : СТБ
Язык : Ukrainian
Текст #1
Идентификатор : 9
Формат : UTF-8
Идентификатор кодека : S_TEXT/UTF8
Идентификатор кодека/Информация: UTF-8 Plain Text
Заголовок : Купряков Алексей
Язык : Russian
Текст #2
Идентификатор : 10
Формат : VobSub
Режим смешивания : zlib
Идентификатор кодека : S_VOBSUB
Идентификатор кодека/Информация: The same subtitle format used on DVDs
Заголовок : English
Язык : English
Текст #3
Идентификатор : 11
Формат : VobSub
Режим смешивания : zlib
Идентификатор кодека : S_VOBSUB
Идентификатор кодека/Информация: The same subtitle format used on DVDs
Заголовок : Spanish
Язык : Spanish
Текст #4
Идентификатор : 12
Формат : VobSub
Режим смешивания : zlib
Идентификатор кодека : S_VOBSUB
Идентификатор кодека/Информация: The same subtitle format used on DVDs
Заголовок : French
Язык : French
Текст #5
Идентификатор : 13
Формат : VobSub
Режим смешивания : zlib
Идентификатор кодека : S_VOBSUB
Идентификатор кодека/Информация: The same subtitle format used on DVDs
Заголовок : Spanish
Язык : Spanish
Текст #6
Идентификатор : 14
Формат : VobSub
Режим смешивания : zlib
Идентификатор кодека : S_VOBSUB
Идентификатор кодека/Информация: The same subtitle format used on DVDs
Заголовок : English
Язык : English
Текст #7
Идентификатор : 15
Формат : VobSub
Режим смешивания : zlib
Идентификатор кодека : S_VOBSUB
Идентификатор кодека/Информация: The same subtitle format used on DVDs
Заголовок : Spanish
Язык : Spanish
Текст #8
Идентификатор : 16
Формат : VobSub
Режим смешивания : zlib
Идентификатор кодека : S_VOBSUB
Идентификатор кодека/Информация: The same subtitle format used on DVDs
Заголовок : French
Язык : French
Текст #9
Идентификатор : 17
Формат : VobSub
Режим смешивания : zlib
Идентификатор кодека : S_VOBSUB
Идентификатор кодека/Информация: The same subtitle format used on DVDs
Заголовок : Spanish
Язык : Spanish
Текст #10
Идентификатор : 18
Формат : UTF-8
Идентификатор кодека : S_TEXT/UTF8
Идентификатор кодека/Информация: UTF-8 Plain Text
Заголовок : subs.cc.utf16be
Язык : English

7 Сезон |22 эпизодa|

-Секретные материалы |7 Сезон|- Год выпуска: 1999
Продолжительность серии: ~00:44
Режиссер: Крис Картер/Chris Carter
Описание: В 7 сезоне Секретных Материалов 22 эпизода. Спецагент Фокс Малдер впадает в кому, причиной которой является аномально возросшая мозговая активность. Дане Скалли приходится изо всех сил искать разгадку этого недуга. Саму Скалли, занятую поиском лекарства от рака, обманывает Курильщик, а Фокс Малдер неожиданно узнает, как на самом деле много лет назад пропала его сестра. Через семь лет после начала совместной работы агенты Малдер и Скалли возвращаются на место их первого расследования, где Малдера неожиданно похищают инопланетяне.
7x01 - The Sixth Extinction (Шестое вымирание)
7x02 - The Sixth Extinction II: Amor Fati (Шестое вымирание II: Любовь к судьбе)
7x03 - Hungry (Голодный)
7x04 - Millennium (Тысячелетие)
7x05 - Rush (Натиск)
7x06 - The Goldberg Variation (Вариация Голдберга)
7x07 - Orison (Орисон)
7x08 - The Amazing Maleeni (Удивительный Малини)
7x09 - Signs & Wonders (Знамения и чудеса)
7x10 - Sein Und Zeit (Бытие и время)
7x11 - Closure (Закрытие)
7x12 - X-Cops (Секретные копы)
7x13 - First Person Shooter (Стрелялка от первого лица)
7x14 - Theef (Вор)
7x15 - En Ami (По-дружески)
7x16 - Chimera (Химера)
7x17 - All Things (Все вещи)
7x18 - Brand X (Марка Икс)
7x19 - Hollywood AD (Голливуд, н. э.)
7x20 - Fight Club (Бойцовский клуб)
7x21 - Je Souhaite (Я хочу)
7x22 - Requiem (Реквием)
Видеокодек: MPEG-2
Формат: MKV
Качество видео: DVD-Remux
Битрейт видео: ~5017 Кбит/сек
Размер кадра: 720x480 (853х480)
Аудио 1: Russian AC3 2.0, 256 Кбит/с - ВИЗГУНОВ
Аудио 2: Russian AC3 2.0, 192 Кбит/с - ЖИВОВ
Аудио 3: Russian AC3 2.0, 256 Кбит/с - ОРТ
Аудио 4: Russian MP3 2.0, 128 Кбит/с - REN-TV
Аудио 5: English AC3 5.1, 192 Кбит/с - Оригинал
Скриншоты:

Формат : Matroska
Размер файла : 1,91 Гбайт
Продолжительность : 44 м.
Общий поток : 6153 Кбит/сек
Видео
Идентификатор : 1
Формат : MPEG Video
Версия формата : Version 2
Профиль формата : [email protected]
Параметр BVOP формата : Нет
Параметр матрицы формата : По умолчанию
Идентификатор кодека : V_MPEG2
Идентификатор кодека/Информация: MPEG 1 or 2 Video
Продолжительность : 44 м.
Вид битрейта : Переменный
Битрейт : 5017 Кбит/сек
Номинальный битрейт : 9800 Кбит/сек
Ширина : 720 пикс.
Высота : 480 пикс.
Соотношение сторон : 16:9
Соотношение сторон в оригинале : 16:9
Частота кадров : 59,940 кадр/сек
Частота кадров в оригинале : 29,970 кадр/сек
Стандарт вещания : Component
Цветовое пространство : YUV
Подвыборка цветности : 4:2:0
Битовая глубина : 8 бит
Тип развёртки : Прогрессивная
Порядок развёртки : Верхнее поле первое
Метод сжатия : С потерями
Бит/(Пиксели*Кадры) : 0.242
Размер потока : 1,56 Гбайт (82%)
Аудио #1
Идентификатор : 2
Формат : AC-3
Формат/Информация : Audio Coding 3
Расширение режима : CM (complete main)
Идентификатор кодека : A_AC3
Продолжительность : 44 м.
Вид битрейта : Постоянный
Битрейт : 256 Кбит/сек
Каналы : 2 канала
Расположение каналов : Front: L R
Частота : 48,0 КГц
Битовая глубина : 16 бит
Метод сжатия : С потерями
Размер потока : 81,4 Мбайт (4%)
Заголовок : Визгунов
Язык : Russian
Аудио #2
Идентификатор : 3
Формат : AC-3
Формат/Информация : Audio Coding 3
Расширение режима : CM (complete main)
Идентификатор кодека : A_AC3
Продолжительность : 44 м.
Вид битрейта : Постоянный
Битрейт : 192 Кбит/сек
Каналы : 2 канала
Расположение каналов : Front: L R
Частота : 48,0 КГц
Битовая глубина : 16 бит
Метод сжатия : С потерями
Размер потока : 61,1 Мбайт (3%)
Заголовок : Живов
Язык : Russian
Аудио #3
Идентификатор : 4
Формат : AC-3
Формат/Информация : Audio Coding 3
Расширение режима : CM (complete main)
Идентификатор кодека : A_AC3
Продолжительность : 44 м.
Вид битрейта : Постоянный
Битрейт : 256 Кбит/сек
Каналы : 2 канала
Расположение каналов : Front: L R
Частота : 48,0 КГц
Битовая глубина : 16 бит
Метод сжатия : С потерями
Размер потока : 81,4 Мбайт (4%)
Заголовок : ОРТ
Язык : Russian
Аудио #4
Идентификатор : 5
Формат : MPEG Audio
Версия формата : Version 1
Профиль формата : Layer 3
Режим : Joint stereo
Расширение режима : MS Stereo
Идентификатор кодека : A_MPEG/L3
Идентификатор кодека/Подсказка : MP3
Продолжительность : 44 м.
Вид битрейта : Переменный
Битрейт : 118 Кбит/сек
Номинальный битрейт : 128 Кбит/сек
Каналы : 2 канала
Частота : 48,0 КГц
Метод сжатия : С потерями
Размер потока : 37,6 Мбайт (2%)
Заголовок : РЕН-ТВ
Библиотека кодирования : LAME3.98r
Настройки программы : -m j -V 4 -q 3 -lowpass 17 --abr 128
Язык : Russian
Аудио #5
Идентификатор : 6
Формат : AC-3
Формат/Информация : Audio Coding 3
Профиль формата : Dolby Digital
Расширение режима : CM (complete main)
Идентификатор кодека : A_AC3
Продолжительность : 44 м.
Вид битрейта : Постоянный
Битрейт : 192 Кбит/сек
Каналы : 2 канала
Расположение каналов : Front: L R
Частота : 48,0 КГц
Битовая глубина : 16 бит
Метод сжатия : С потерями
Размер потока : 61,1 Мбайт (3%)
Заголовок : English
Язык : English
Текст #1
Идентификатор : 7
Формат : VobSub
Режим смешивания : zlib
Идентификатор кодека : S_VOBSUB
Идентификатор кодека/Информация: The same subtitle format used on DVDs
Язык : English
Текст #2
Идентификатор : 8
Формат : VobSub
Режим смешивания : zlib
Идентификатор кодека : S_VOBSUB
Идентификатор кодека/Информация: The same subtitle format used on DVDs
Язык : Spanish
Текст #3
Идентификатор : 9
Формат : VobSub
Режим смешивания : zlib
Идентификатор кодека : S_VOBSUB
Идентификатор кодека/Информация: The same subtitle format used on DVDs
Язык : French
Текст #4
Идентификатор : 10
Формат : VobSub
Режим смешивания : zlib
Идентификатор кодека : S_VOBSUB
Идентификатор кодека/Информация: The same subtitle format used on DVDs
Язык : Spanish
Меню
00 : 00:00.000 : en:Chapter 01
00 : 03:18.524 : en:Chapter 02
00 : 04:04.414 : en:Chapter 03
00 : 06:30.526 : en:Chapter 04
00 : 09:11.921 : en:Chapter 05
00 : 12:01.581 : en:Chapter 06
00 : 14:59.492 : en:Chapter 07
00 : 17:34.510 : en:Chapter 08
00 : 22:48.658 : en:Chapter 09
00 : 26:39.261 : en:Chapter 10
00 : 28:55.468 : en:Chapter 11
00 : 34:44.971 : en:Chapter 12
00 : 36:38.918 : en:Chapter 13
00 : 42:05.721 : en:Chapter 14
00 : 43:51.573 : en:Chapter 15

8 Сезон |21 эпизодa|

-Секретные материалы |8 Сезон|- Год выпуска: 2000
Продолжительность серии: ~00:44
Режиссер: Крис Картер/Chris Carter
Описание: 8 сезон Секретных материалов состоит из 21 эпизода. Напарником Даны Скалли становится агент Джон Доггет, вместе с которым она расследует исчезновение Малдера, похищенного инопланетянами. Их поиски заканчиваются успехом, но жизнь и здоровье Малдера серьезно подорваны. После того как Скалли уходит в декретный отпуск, Малдеру и Доггету приходится работать в паре. После того как Скалли рожает мальчика, наделенного удивительными способностями, за ним начинают охотиться суперсолдаты – создания, появившиеся на свет в результате очередного проекты по скрещиванию людей и пришельцев.
8x01 - Within (Внутри)
8x02 - Without (Снаружи)
8x03 - Patience (Терпение)
8x04 - Roadrunners (Кукушата)
8x05 - Invocation (Заклинание)
8x06 - Redrum (Убийство)
8x07 - Via Negativa (Через отрицание)
8x08 - Surekill (Контрольный выстрел)
8x09 - Salvage (Спасение)
8x10 - Badlaa (Возмездие)
8x11 - The Gift (Дар)
8x12 - Medusa (Медуза)
8x13 - Per Manum (Вручную)
8x14 - This Is Not Happening (Этого не может быть)
8x15 - Deadalive (Живой мертвец)
8x16 - Three Words (Три слова)
8x17 - Empedocles (Эмпедокл)
8x18 - Vienen (Они идут)
8x19 - Alone (Одиночка)
8x20 - Essence (Сущность)
8x21 - Existence (Существование)
Видеокодек: MPEG-2
Формат: MKV
Качество видео: DVD-Remux
Битрейт видео: ~5005 Кбит/сек
Размер кадра: 720x480 (853х480)
Аудио 1: Russian AC3 2.0, 256 Кбит/с - ВИЗГУНОВ
Аудио 2: Russian AC3 2.0, 192 Кбит/с - ЖИВОВ
Аудио 3: Russian AC3 2.0, 256 Кбит/с - ОРТ
Аудио 4: Russian MP3 2.0, 128 Кбит/с - REN-TV
Аудио 5: Russian AC3 2.0, 256 Кбит/с - Лазер-видео
Аудио 6: English AC3 5.1, 192 Кбит/с - Оригинал
Аудио 7: Ukrainian AC-3 2.0, 192 Кбит/с - Кино / 2+2
Скриншоты:

Формат : Matroska
Размер файла : 2,03 Гбайт
Продолжительность : 44 м.
Общий поток : 6599 Кбит/сек
Видео
Идентификатор : 1
Формат : MPEG Video
Версия формата : Version 2
Профиль формата : [email protected]
Параметр BVOP формата : Нет
Параметр матрицы формата : По умолчанию
Идентификатор кодека : V_MPEG2
Идентификатор кодека/Информация: MPEG 1 or 2 Video
Продолжительность : 44 м.
Вид битрейта : Переменный
Битрейт : 5005 Кбит/сек
Номинальный битрейт : 9800 Кбит/сек
Ширина : 720 пикс.
Высота : 480 пикс.
Соотношение сторон : 16:9
Соотношение сторон в оригинале : 16:9
Частота кадров : 59,940 кадр/сек
Частота кадров в оригинале : 29,970 кадр/сек
Стандарт вещания : Component
Цветовое пространство : YUV
Подвыборка цветности : 4:2:0
Битовая глубина : 8 бит
Тип развёртки : Прогрессивная
Порядок развёртки : Верхнее поле первое
Метод сжатия : С потерями
Бит/(Пиксели*Кадры) : 0.242
Размер потока : 1,54 Гбайт (76%)
Аудио #1
Идентификатор : 2
Формат : AC-3
Формат/Информация : Audio Coding 3
Расширение режима : CM (complete main)
Идентификатор кодека : A_AC3
Продолжительность : 44 м.
Вид битрейта : Постоянный
Битрейт : 256 Кбит/сек
Каналы : 2 канала
Расположение каналов : Front: L R
Частота : 48,0 КГц
Битовая глубина : 16 бит
Метод сжатия : С потерями
Размер потока : 80,6 Мбайт (4%)
Заголовок : Визгунов
Язык : Russian
Аудио #2
Идентификатор : 3
Формат : AC-3
Формат/Информация : Audio Coding 3
Расширение режима : CM (complete main)
Идентификатор кодека : A_AC3
Продолжительность : 44 м.
Вид битрейта : Постоянный
Битрейт : 192 Кбит/сек
Каналы : 2 канала
Расположение каналов : Front: L R
Частота : 48,0 КГц
Битовая глубина : 16 бит
Метод сжатия : С потерями
Размер потока : 60,4 Мбайт (3%)
Заголовок : Живов
Язык : Russian
Аудио #3
Идентификатор : 4
Формат : AC-3
Формат/Информация : Audio Coding 3
Расширение режима : CM (complete main)
Идентификатор кодека : A_AC3
Продолжительность : 44 м.
Вид битрейта : Постоянный
Битрейт : 256 Кбит/сек
Каналы : 2 канала
Расположение каналов : Front: L R
Частота : 48,0 КГц
Битовая глубина : 16 бит
Метод сжатия : С потерями
Размер потока : 80,6 Мбайт (4%)
Заголовок : ОРТ
Язык : Russian
Аудио #4
Идентификатор : 5
Формат : MPEG Audio
Версия формата : Version 1
Профиль формата : Layer 3
Режим : Joint stereo
Расширение режима : MS Stereo
Идентификатор кодека : A_MPEG/L3
Идентификатор кодека/Подсказка : MP3
Продолжительность : 44 м.
Вид битрейта : Переменный
Битрейт : 119 Кбит/сек
Номинальный битрейт : 128 Кбит/сек
Каналы : 2 канала
Частота : 48,0 КГц
Метод сжатия : С потерями
Размер потока : 37,5 Мбайт (2%)
Заголовок : РЕН-ТВ
Библиотека кодирования : LAME3.98r
Настройки программы : -m j -V 4 -q 3 -lowpass 17 --abr 128
Язык : Russian
Аудио #5
Идентификатор : 6
Формат : AC-3
Формат/Информация : Audio Coding 3
Расширение режима : CM (complete main)
Идентификатор кодека : A_AC3
Продолжительность : 44 м.
Вид битрейта : Постоянный
Битрейт : 256 Кбит/сек
Каналы : 2 канала
Расположение каналов : Front: L R
Частота : 48,0 КГц
Битовая глубина : 16 бит
Метод сжатия : С потерями
Размер потока : 80,6 Мбайт (4%)
Заголовок : Лазер-видео
Язык : Russian
Аудио #6
Идентификатор : 7
Формат : AC-3
Формат/Информация : Audio Coding 3
Профиль формата : Dolby Digital
Расширение режима : CM (complete main)
Идентификатор кодека : A_AC3
Продолжительность : 44 м.
Вид битрейта : Постоянный
Битрейт : 192 Кбит/сек
Каналы : 2 канала
Расположение каналов : Front: L R
Частота : 48,0 КГц
Битовая глубина : 16 бит
Метод сжатия : С потерями
Размер потока : 60,4 Мбайт (3%)
Заголовок : English
Язык : English
Аудио #7
Идентификатор : 8
Формат : AC-3
Формат/Информация : Audio Coding 3
Расширение режима : CM (complete main)
Идентификатор кодека : A_AC3
Продолжительность : 44 м.
Вид битрейта : Постоянный
Битрейт : 192 Кбит/сек
Каналы : 2 канала
Расположение каналов : Front: L R
Частота : 48,0 КГц
Битовая глубина : 16 бит
Метод сжатия : С потерями
Размер потока : 60,4 Мбайт (3%)
Заголовок : Кино / 2+2
Язык : Ukrainian
Текст #1
Идентификатор : 9
Формат : VobSub
Режим смешивания : zlib
Идентификатор кодека : S_VOBSUB
Идентификатор кодека/Информация: The same subtitle format used on DVDs
Язык : English
Текст #2
Идентификатор : 10
Формат : VobSub
Режим смешивания : zlib
Идентификатор кодека : S_VOBSUB
Идентификатор кодека/Информация: The same subtitle format used on DVDs
Язык : Spanish
Текст #3
Идентификатор : 11
Формат : VobSub
Режим смешивания : zlib
Идентификатор кодека : S_VOBSUB
Идентификатор кодека/Информация: The same subtitle format used on DVDs
Язык : French
Текст #4
Идентификатор : 12
Формат : VobSub
Режим смешивания : zlib
Идентификатор кодека : S_VOBSUB
Идентификатор кодека/Информация: The same subtitle format used on DVDs
Язык : Spanish
Меню
00 : 00:00.000 : en:Chapter 01
00 : 00:47.671 : en:Chapter 02
00 : 01:19.650 : en:Chapter 03
00 : 03:34.885 : en:Chapter 04
00 : 07:19.709 : en:Chapter 05
00 : 10:18.013 : en:Chapter 06
00 : 14:21.722 : en:Chapter 07
00 : 17:03.884 : en:Chapter 08
00 : 21:15.173 : en:Chapter 09
00 : 25:58.256 : en:Chapter 10
00 : 29:25.196 : en:Chapter 11
00 : 34:32.115 : en:Chapter 12
00 : 36:13.717 : en:Chapter 13
00 : 38:54.117 : en:Chapter 14
00 : 43:24.106 : en:Chapter 15

9 Сезон |19 эпизодa|

-Секретные материалы |9 Сезон|- Год выпуска: 2001-2002
Продолжительность серии: ~00:44
Режиссер: Крис Картер/Chris Carter
Описание: В девятом сезоне «Секретных материалов» 19 эпизодов. Для того чтобы обеспечить безопасность Дане Скалли и их сыну Уильяму, экс-спецагенту Фоксу Малдеру приходится их покинуть. В проекте «Секретные Материалы» тоже перемены – новой напарницей Джона Доггета становится Моника Рейс. Зрители увидят как за сыном Скалли и Малдера продолжают охотиться суперсолдаты – результат сверхсекретного проекта по скрещиванию пришельца и человека. Для того чтобы сохранить своему сыну жизнь Дане Скалли приходится отдать его в анонимную приемную семью. Спустя год из изгнания возвращается Малдер, который все так же хочет постичь Истину.
9x01 - Nothing Important Happened Today (Ничего особенного сегодня не случилось)
9x02 - Nothing Important Happened Today II (Ничего особенного сегодня не случилось II)
9x03 - Daemonicus (Сатана)
9x04 - Hellbound (Пленник Ада)
9x05 - 4-D (4-D)
9x06 - Lord of the Flies (Повелитель мух)
9x07 - John Doe (Джон Доу)
9x08 - Trust No One (Не верь никому)
9x09 - Underneath (Подноготная)
9x10 - Provenance (Происхождение)
9x11 - Providence (Провидение)
9x12 - Scary Monsters (Страшные монстры)
9x13 - Audrey Pauley (Одри Поли)
9x14 - Improbable (Невероятно)
9x15 - Jump The Shark (Прыжок через акулу)
9x16 - Release (Освобождение)
9x17 - William (Уильям)
9x18 - Sunshine Days (Солнечные деньки)
9x19 - The Truth (Истина)
Видеокодек: MPEG-2
Формат: MKV
Качество видео: DVD-Remux
Битрейт видео: ~4748 Кбит/сек
Размер кадра: 720x480 (853х480)
Аудио 1: Russian AC3 2.0, 192 Кбит/с - ЖИВОВ
Аудио 2: Russian MP3 2.0, 128 Кбит/с - REN-TV
Аудио 3: English AC3 5.1, 192 Кбит/с - Оригинал
Аудио 4: English AC3 2.0, 192 Кбит/с - Kомментарии
Аудио 5: Ukrainian AC-3 2.0, 192 Кбит/с - Кино / 2+2
Скриншоты:

Формат : Matroska
Размер файла : 1,77 Гбайт
Продолжительность : 44 м.
Общий поток : 5751 Кбит/сек
Видео
Идентификатор : 1
Формат : MPEG Video
Версия формата : Version 2
Профиль формата : [email protected]
Параметр BVOP формата : Нет
Параметр матрицы формата : По умолчанию
Идентификатор кодека : V_MPEG2
Идентификатор кодека/Информация: MPEG 1 or 2 Video
Продолжительность : 44 м.
Вид битрейта : Переменный
Битрейт : 4748 Кбит/сек
Номинальный битрейт : 9800 Кбит/сек
Ширина : 720 пикс.
Высота : 480 пикс.
Соотношение сторон : 16:9
Соотношение сторон в оригинале : 16:9
Частота кадров : 29,970 кадр/сек
Стандарт вещания : Component
Цветовое пространство : YUV
Подвыборка цветности : 4:2:0
Битовая глубина : 8 бит
Тип развёртки : Прогрессивная
Порядок развёртки : Верхнее поле первое
Метод сжатия : С потерями
Бит/(Пиксели*Кадры) : 0.458
Размер потока : 1,46 Гбайт (83%)
Язык : English
Аудио #1
Идентификатор : 2
Формат : AC-3
Формат/Информация : Audio Coding 3
Расширение режима : CM (complete main)
Идентификатор кодека : A_AC3
Продолжительность : 44 м.
Вид битрейта : Постоянный
Битрейт : 192 Кбит/сек
Каналы : 2 канала
Расположение каналов : Front: L R
Частота : 48,0 КГц
Битовая глубина : 16 бит
Метод сжатия : С потерями
Размер потока : 60,6 Мбайт (3%)
Заголовок : Живов
Язык : Russian
Аудио #2
Идентификатор : 3
Формат : MPEG Audio
Версия формата : Version 1
Профиль формата : Layer 3
Режим : Joint stereo
Идентификатор кодека : A_MPEG/L3
Идентификатор кодека/Подсказка : MP3
Продолжительность : 44 м.
Вид битрейта : Переменный
Битрейт : 120 Кбит/сек
Номинальный битрейт : 128 Кбит/сек
Каналы : 2 канала
Частота : 48,0 КГц
Метод сжатия : С потерями
Размер потока : 37,8 Мбайт (2%)
Заголовок : РЕН-ТВ
Библиотека кодирования : LAME3.98r
Настройки программы : -m j -V 4 -q 3 -lowpass 17 --abr 128
Язык : Russian
Аудио #3
Идентификатор : 4
Формат : AC-3
Формат/Информация : Audio Coding 3
Профиль формата : Dolby Digital
Расширение режима : CM (complete main)
Идентификатор кодека : A_AC3
Продолжительность : 44 м.
Вид битрейта : Постоянный
Битрейт : 192 Кбит/сек
Каналы : 2 канала
Расположение каналов : Front: L R
Частота : 48,0 КГц
Битовая глубина : 16 бит
Метод сжатия : С потерями
Размер потока : 60,6 Мбайт (3%)
Заголовок : English
Язык : English
Аудио #4
Идентификатор : 5
Формат : AC-3
Формат/Информация : Audio Coding 3
Профиль формата : Dolby Digital
Расширение режима : CM (complete main)
Идентификатор кодека : A_AC3
Продолжительность : 44 м.
Вид битрейта : Постоянный
Битрейт : 192 Кбит/сек
Каналы : 2 канала
Расположение каналов : Front: L R
Частота : 48,0 КГц
Битовая глубина : 16 бит
Метод сжатия : С потерями
Размер потока : 60,6 Мбайт (3%)
Заголовок : Commentary by Frank Spotnitz, Vince Gilligan, John Shiban
Язык : English
Аудио #5
Идентификатор : 6
Формат : AC-3
Формат/Информация : Audio Coding 3
Расширение режима : CM (complete main)
Идентификатор кодека : A_AC3
Продолжительность : 44 м.
Вид битрейта : Постоянный
Битрейт : 192 Кбит/сек
Каналы : 2 канала
Расположение каналов : Front: L R
Частота : 48,0 КГц
Битовая глубина : 16 бит
Метод сжатия : С потерями
Размер потока : 60,6 Мбайт (3%)
Заголовок : Кино / 2+2
Язык : Ukrainian
Текст #1
Идентификатор : 7
Формат : VobSub
Режим смешивания : zlib
Идентификатор кодека : S_VOBSUB
Идентификатор кодека/Информация: The same subtitle format used on DVDs
Язык : English
Текст #2
Идентификатор : 8
Формат : VobSub
Режим смешивания : zlib
Идентификатор кодека : S_VOBSUB
Идентификатор кодека/Информация: The same subtitle format used on DVDs
Язык : Spanish
Текст #3
Идентификатор : 9
Формат : VobSub
Режим смешивания : zlib
Идентификатор кодека : S_VOBSUB
Идентификатор кодека/Информация: The same subtitle format used on DVDs
Язык : French
Текст #4
Идентификатор : 10
Формат : VobSub
Режим смешивания : zlib
Идентификатор кодека : S_VOBSUB
Идентификатор кодека/Информация: The same subtitle format used on DVDs
Язык : Spanish
Текст #5
Идентификатор : 11
Формат : VobSub
Режим смешивания : zlib
Идентификатор кодека : S_VOBSUB
Идентификатор кодека/Информация: The same subtitle format used on DVDs
Язык : English
Текст #6
Идентификатор : 12
Формат : VobSub
Режим смешивания : zlib
Идентификатор кодека : S_VOBSUB
Идентификатор кодека/Информация: The same subtitle format used on DVDs
Язык : English
Меню
00 : 00:00.000 : en:Chapter 01
00 : 01:24.684 : en:Chapter 02
00 : 02:11.331 : en:Chapter 03
00 : 05:03.503 : en:Chapter 04
00 : 08:34.647 : en:Chapter 05
00 : 13:09.321 : en:Chapter 06
00 : 15:17.483 : en:Chapter 07
00 : 21:51.843 : en:Chapter 08
00 : 24:52.657 : en:Chapter 09
00 : 28:17.696 : en:Chapter 10
00 : 32:16.768 : en:Chapter 11
00 : 34:41.345 : en:Chapter 12
00 : 37:36.020 : en:Chapter 13
00 : 40:29.160 : en:Chapter 14
00 : 43:28.505 : en:Chapter 15

Дополнительная информация:

Проект изначально задумывался с целью собрать сериал в самом лучшем качестве на сегодняшний день в наиболее удобном контейнере MKV с ПОЛНЫМ сохранением качества и без малейшего пережатия.

Награды:


Сатурн, 2003 год
Номинации (1):
Лучшее DVD-издание телепрограммы — «For seasons 5-6»

Сатурн, 2001 год
Победитель (1):
Лучший телеактер (Роберт Патрик)
Номинации (2):
Лучшая телеактриса (Джиллиан Андерсон)
Лучший телесериал, созданный для телетрансляции

Сатурн, 1999 год
Победитель (1):
Лучший жанровый телесериал, сделанный для телетрансляции
Номинации (2):
Лучший жанровый телеактер (Дэвид Духовны)
Лучшая жанровая телеактриса (Джиллиан Андерсон)

Сатурн, 1997 год
Победитель (2):
Лучшая жанровая телеактриса (Джиллиан Андерсон)
Лучший жанровый телесериал, сделанный для телетрансляции
Номинации (1):
Лучший жанровый телеактер (Дэвид Духовны)

Сатурн, 1995 год
Победитель (1):
Лучший жанровый телесериал

Золотой глобус, 1998 год
Победитель (1):
Лучший драматический сериал
Номинации (2):
Лучшая мужская роль на ТВ (драма) (Дэвид Духовны)
Лучшая женская роль на ТВ (драма) (Джиллиан Андерсон)

Золотой глобус, 1997 год
Победитель (3):
Лучшая мужская роль на ТВ (драма) (Дэвид Духовны)
Лучшая женская роль на ТВ (драма) (Джиллиан Андерсон)
Лучший драматический сериал

Золотой глобус, 1995 год
Победитель (1):
Лучший драматический сериал

Знаете ли вы, что...

Телефон Малдера в сериале - 555-0199. Этот номер принадлежит также семейству Берманов в фильме «Красота по-американски». И тот же самый телефон Аль Пачино оставляет на автоответчике Рассела Кроу в фильме «Свой человек».
Малдер пользуется пистолетом Glock (в первом сезоне), а также Вальтером в ножной кобуре. Скалли использует только Walther PPK/S.
Упоминается в книге Стивена Кинга «Девочка, которая любила Тома Гордона».
В серии 1x13 «Трансвестит» («Gender Bender») на 5 минуте, когда Малдер осматривает труп, видно, как этот «труп» моргает.
Актёр Николас Лиа, который играл, начиная со второго сезона, Алекса Крайчека, засветился также в эпизоде 1x13 «Трансвестит» («Gender Bender»), где появляется в роли одной из жертв; Скалли и Малдер допрашивают его в больнице примерно на 35 минуте.
В первом эпизодe (Pilot) человек, сидящий за Скалли в самолете, это отец Дэвида Духовны.
В серии 1x12 «За морем» («Beyond the Sea») на 8.10 минуте видна на вешалке кепка, эту кепку Фокс Малдер взял после смерти Макса Феникса из серии 1x9 «Падший ангел» («Fallen Angel») на 40 минуте.
Фокс Малдер и Дана Скалли на протяжении всего сериала используют арендованные автомобили. При этом фирма, которая предоставляет авто, всегда одна и носит название Lariat (об этом говорят наклейки на бамперах машин агентов).
Второй эпизод девятого сезона «Секретных материалов» (Nothing Important Happened Today II) посвящен Чаду Келлеру (Chad Keller), о чем сообщается перед финальными титрами серии. Чад Келлер был ученым, занятым в аэрокосмической промышленности и являлся близким другом Криса Картера и его супруги. Он погиб во время атаки террористов в Нью-Йорке в сентябре 2001 года.
Ричард Белцер, известный по роли детектива Манча из сериала «Закон и порядок: Специальный корпус», появляется в 3 серии 5-го сезона в роли все того же детектива Манча.

...из книги «3500 кинорецензий» ~7/10

Сергей Кудрявцев 7/10
Мистический триллер
Популярный американский телесериал «Секретные материалы» у нас первоначально демонстрировался на канале Ren-TV, аудитория которого была всё-таки неизмеримо меньше, чем у тогдашнего ОРТ. А вот там вполне разумно решили подгадать начало показа приобретшего даже культовый статус странного и загадочного телезрелища именно к выходу в российских кинотеатрах в октябре 1998 года фильма «Секретные материалы. Борьба с будущим», который стал своеобразным ответвлением от сериала.
Что ж — не смотреть же отечественным зрителям одни лишь латиноамериканские «мыльные оперы» да американскую «Санта-Барбару»… И пусть народ для разнообразия начнёт всюду подозревать присутствие неких нездешних сил. Может, это и должно было, по идее, помочь (кстати, вскоре после случившегося дефолта) пережить, как всегда, сложную и неразрешимую ситуацию в России, где многое поневоле кажется порождением неведомого заговора против собственного населения.
Уже дебютная серия «Секретных материалов» вольно или невольно вызвала в памяти другой известный телецикл — «Твин Пикс», так что сразу же возник немалый соблазн обозвать иное мистическое творение для голубого экрана как «Твин Икс». Ведь и там, и здесь юные девушки из колледжа стали жертвами неведомого маньяка, точнее — невидимой силы зла, будто разлитой в воздухе где-то в одноэтажной Америке, посреди её лесов, гор и небольших городишек. Вот и в «Твин Пиксе» загадочный убийца Боб, словно порождение тёмных сторон бытия, мог обретать любое обличье, теоретически становиться каждым из жителей городка с лесопилкой, в конце концов (к явному неудовольствию поклонников сериала), даже проникнуть в самого агента Купера, благородного борца с мрачной непознаваемостью мира.
А вторая и четвёртая части «Секретных материалов» вступили в перекличку с этапной лентой «Близкие контакты третьего вида» Стивена Спилберга, которая на тот момент уже в течение двух десятилетий безусловно влияла на проблематику произведений о гипотетическом контакте с инопланетными цивилизациями. В свою очередь, третий эпизод сериала мог напомнить ещё один устойчивый мотив фантастики о «вторжении похитителей тел» (было уже три фильма с этим сюжетом, и последний из них снял модный независимый режиссёр Абел Феррара).
Всё это свидетельствовало отнюдь не о заимствованиях, а о несомненной укоренённости данных идей в современном зрительском самосознании — причём не только американцев, но и (судя по успеху «Твин Пикса» и «Секретных материалов» далеко за пределами Америки) других жителей Земли. Дело не в одной лишь тяге к мистике, к чему-то непознанному и неизведанному, что особенно обостряется в конце каждого века, когда неумолимо возрастает рост интереса к оккультизму и эзотерике. Чего уж говорить о тревожных, чуть ли не апокалиптических настроениях во время смены тысячелетий! Кстати, Крис Картер, создатель «Секретных материалов» (забавно, что он родился хоть и 13-го, но в субботу), запустил на телевидении в 1996—1999 годы ещё один удачный таинственный цикл под названием «Тысячелетие».
Найденная Картером формула успеха зиждется на том же мастерски использованном, как и Дэвидом Линчем в «Твин Пиксе», по-хорошему обывательском, адаптированном для понимания миллионов (пусть это не исключает сверхинтеллектуальных, заумных трактовок) представлении об окружающем мире как истинном средоточии борьбы сил Добра и Зла, Света и Тьмы, Бога и Дьявола. Причём двое агентов ФБР из отдела паранормальных явлений — мужчина по имени Фокс Малдер и женщина, которую зовут Дэна Скалли, — выступают ещё и в качестве посредников между тайным и явным, будто полпредами публики в своеобразном зазеркалье, легко позволяя самым обычным зрителям идентифицировать себя с ними. А «домашность», доступность еженедельного знакомства с этими героями порой при весьма загадочных обстоятельствах, всё же не отягощённых глобальностью подхода и гигантоманией в использовании спецэффектов, как раз и превращает данное зрелище во вполне вероятное, даже правдоподобное и странным образом убедительное.
В отличие от «Твин Пикса», в «Секретных материалах» каждая часть практически самостоятельна, поскольку Фокс Малдер и Дэна Скалли занимаются всегда новым засекреченным делом. Впрочем, есть и сквозные темы (например, явно ощущаемый, но остающийся не до конца разгаданным некий заговор пришельцев и их сторонников, которые способствуют скрытой колонизации Земли), и кое-какие переходящие из серии в серию персонажи — вроде непонятного Курильщика, вероятно, стоящего во главе представителей инопланетного вторжения.
Сериал «Секретные материалы» просуществовал в США десять сезонов, но теоретически мог продолжаться долго, поскольку интерес публики к различным сверхъестественным явлениям вовсе не гаснет. Если этот цикл и был в итоге принесён в жертву, то во многом из-за возросших претензий (в том числе — денежных) его основных исполнителей, Дэвида Дуковни и Джиллиан Андерсон, которым также надоело быть заложниками одного лишь телепроизведения, а больше хотелось играть разнообразные роли в кино.

[Цитировать]



Показать сообщения:    

Текущее время: 22-Окт 19:22

Часовой пояс: UTC + 6


Вы не можете начинать темы
Вы не можете отвечать на сообщения
Вы не можете редактировать свои сообщения
Вы не можете удалять свои сообщения
Вы не можете голосовать в опросах
Вы не можете прикреплять файлы к сообщениям
Вы не можете скачивать файлы

!ВНИМАНИЕ!
Сайт не предоставляет электронные версии произведений, а занимается лишь коллекционированием и каталогизацией ссылок, присылаемых и публикуемых на форуме нашими читателями. Если вы являетесь правообладателем какого-либо представленного материала и не желаете, чтобы ссылка на него находилась в нашем каталоге, свяжитесь с нами, и мы незамедлительно удалим ее. Файлы для обмена на трекере предоставлены пользователями сайта, и администрация не несет ответственности за их содержание. Просьба не заливать файлы, защищенные авторскими правами, а также файлы нелегального содержания!